找回密码

查看: 2366|回复: 0

[喜剧] 励志的成长 Motivational.Growth.2013.1080p.BluRay.REMUX.AVC.DTS-HD.MA.5.1-FGT 20.53GB

[复制链接]
蓝光币
1984
发表于 2017-12-20 23:44:22 | 显示全部楼层 |阅读模式
101133xkk4tiljis2i2fwk.jpg
◎译  名 励志的长大
◎片  名 励志的长大 Motivational Growth
◎年  代 2015
◎国  家 美国
◎类  别 笑剧 / 可骇 / 奇异
◎语  言 英语
◎上映日期 2015-02-17
◎IMDb评分6.3/10 from 300 users
◎IMDb链接http://www.imdb.com/title/tt1754228/
◎豆瓣评分 今朝无人评价
◎豆瓣链接 https://movie.douban.com/subject/26725019/
◎片  长 104分钟
◎导  演 Don Thacker
◎主  演 Jeffrey Combs
      Adrian DiGiovanni
      Danielle Doetsch

◎简  介 

  Ian Folivor, a depressed and reclusive 30-something, finds himself taking advice from a growth in his bathroom after a failed suicide attempt. The Mold, a smooth talking fungus who was born of the filth collecting in a corner of Ian's neglected bathroom, works to win Ian's trust by helping him clean himself up and remodel his lifestyle. With The Mold's help, Ian attracts the attention of a neighbor he's been ogling through his peephole, Leah, and he manages to find a slice of happiness despite his unnatural circumstances. But Ian starts to receive strange messages from his old and broken down TV set that make him realize that The Mold may not be as helpful as it seems to be, and strange characters combined with stranger events cast Ian's life in the shadow of an epic battle between good and evil that Ian is only partially aware of.



  1. Video
  2. ID             : 1
  3. Format           : AVC
  4. Format/Info          : Advanced Video Codec
  5. Format profile         : [email]High@L4.1[/email]
  6. Format settings, CABAC       : Yes
  7. Format settings, ReFrames      : 3 frames
  8. Format settings, GOP       : M=3, N=12
  9. Codec ID           : V_MPEG4/ISO/AVC
  10. Duration           : 1 h 45 min
  11. Bit rate mode          : Variable
  12. Maximum bit rate         : 30.1 Mb/s
  13. Width            : 1 920 pixels
  14. Height           : 1 080 pixels
  15. Display aspect ratio       : 16:9
  16. Frame rate mode        : Constant
  17. Frame rate           : 23.976 (24000/1001) FPS
  18. Standard           : NTSC
  19. Color space          : YUV
  20. Chroma subsampling       : 4:2:0
  21. Bit depth          : 8 bits
  22. Scan type          : Progressive
  23. Title            : Motivational.Growth.2013.1080p.BluRay.REMUX.AVC.DTS-HD.MA.5.1-FGT
  24. Language           : English
  25. Default            : No
  26. Forced           : No
  27. Color range          : Limited
  28. Color primaries        : BT.709
  29. Transfer characteristics     : BT.709
  30. Matrix coefficients        : BT.709

  31. Audio #1
  32. ID             : 2
  33. Format           : DTS
  34. Format/Info          : Digital Theater Systems
  35. Format profile         : MA / Core
  36. Mode             : 16
  37. Format settings, Endianness    : Big
  38. Codec ID           : A_DTS
  39. Duration           : 1 h 45 min
  40. Bit rate mode          : Variable / Constant
  41. Bit rate           : Unknown / 1 509 kb/s
  42. Channel(s)           : 6 channels
  43. Channel positions        : Front: L C R, Side: L R, LFE
  44. Sampling rate          : 48.0 kHz
  45. Frame rate           : 93.750 FPS (512 spf)
  46. Bit depth          : 24 bits
  47. Compression mode         : Lossless / Lossy
  48. Title            : Motivational.Growth.2013.1080p.BluRay.REMUX.AVC.DTS-HD.MA.5.1-FGT
  49. Language           : English
  50. Default            : Yes
  51. Forced           : No

  52. Audio #2
  53. ID             : 3
  54. Format           : DTS
  55. Format/Info          : Digital Theater Systems
  56. Mode             : 16
  57. Format settings, Endianness    : Big
  58. Codec ID           : A_DTS
  59. Duration           : 1 h 45 min
  60. Bit rate mode          : Constant
  61. Bit rate           : 1 509 kb/s
  62. Channel(s)           : 6 channels
  63. Channel positions        : Front: L C R, Side: L R, LFE
  64. Sampling rate          : 48.0 kHz
  65. Frame rate           : 93.750 FPS (512 spf)
  66. Bit depth          : 24 bits
  67. Compression mode         : Lossy
  68. Stream size          : 1.11GB (5%)
  69. Title            : Motivational.Growth.2013.1080p.BluRay.REMUX.AVC.DTS-HD.MA.5.1-FGT
  70. Language           : English
  71. Default            : No
  72. Forced           : No

  73. Audio #3
  74. ID             : 4
  75. Format           : AC-3
  76. Format/Info          : Audio Coding 3
  77. Format settings, Endianness    : Big
  78. Codec ID           : A_AC3
  79. Duration           : 1 h 45 min
  80. Bit rate mode          : Constant
  81. Bit rate           : 640 kb/s
  82. Channel(s)           : 6 channels
  83. Channel positions        : Front: L C R, Side: L R, LFE
  84. Sampling rate          : 48.0 kHz
  85. Frame rate           : 31.250 FPS (1536 spf)
  86. Bit depth          : 16 bits
  87. Compression mode         : Lossy
  88. Stream size          : 481 MiB (2%)
  89. Title            : Motivational.Growth.2013.1080p.BluRay.REMUX.AVC.DTS-HD.MA.5.1-FGT
  90. Language           : English
  91. Service kind         : Complete Main
  92. Default            : No
  93. Forced           : No

  94. Audio #4
  95. ID             : 5
  96. Format           : AC-3
  97. Format/Info          : Audio Coding 3
  98. Mode             : Dolby Digital
  99. Format settings, Endianness    : Big
  100. Codec ID           : A_AC3
  101. Duration           : 1 h 45 min
  102. Bit rate mode          : Constant
  103. Bit rate           : 448 kb/s
  104. Channel(s)           : 2 channels
  105. Channel positions        : Front: L R
  106. Sampling rate          : 48.0 kHz
  107. Frame rate           : 31.250 FPS (1536 spf)
  108. Bit depth          : 16 bits
  109. Compression mode         : Lossy
  110. Stream size          : 337 MiB (2%)
  111. Title            : Motivational.Growth.2013.1080p.BluRay.REMUX.AVC.DTS-HD.MA.5.1-FGT
  112. Language           : English
  113. Service kind         : Complete Main
  114. Default            : No
  115. Forced           : No

  116. Text
  117. ID             : 6
  118. Format           : PGS
  119. Muxing mode          : zlib
  120. Codec ID           : S_HDMV/PGS
  121. Codec ID/Info          : Picture based subtitle format used on BDs/HD-DVDs
  122. Title            : English-PGS
  123. Language           : English
  124. Default            : Yes
  125. Forced           : No

  126. Menu
  127. 00:00:00.000         : en:Chapter 01
  128. 00:12:25.661         : en:Chapter 02
  129. 00:19:58.780         : en:Chapter 03
  130. 00:30:31.746         : en:Chapter 04
  131. 00:41:52.176         : en:Chapter 05
  132. 00:53:14.232         : en:Chapter 06
  133. 01:05:05.151         : en:Chapter 07
  134. 01:15:24.478         : en:Chapter 08
  135. 01:29:54.555         : en:Chapter 09
  136. 01:42:25.556         : en:Chapter 10



复制代码
复制代码
101133t17j71zu8uww09xu.jpg 101133uo3xmqbkm153o7tx.jpg 101133yy1lqxp7otsvsx77.jpg 101133agsxzexu3jgfnkhc.jpg 101133i6njo5rso9kon7ev.jpg 101133otujjq2s4pjp5j27.jpg

                                


回复

使用道具 举报

懒得打字嘛,点击右侧快捷回复 【右侧内容,后台自定义】
您需要登录后才可以回帖 登录 | 立即加入

本版积分规则

Archiver| |网站地图

Copyright © 2024 Comsenz Inc. Powered by 蓝光电影网

本站内容由用户自主分享和转载自互联网,转载目的在于传递更多信息,并不代表本网赞同其观点和对其真实性负责。

如有侵权、违反国家法律政策行为,请联系我们,我们会第一时间及时清除和处理!

举报反馈邮箱:4k1080.com@gmail.com

快速回复 返回顶部 返回列表