找回密码

查看: 2890|回复: 2

[动作] 罗拉快跑/疾走罗拉 Run.Lola.Run.1998.1080p.BluRay.REMUX.AVC.TrueHD.5.1-FGT 18.21GB

[复制链接]
蓝光币
1992
发表于 2017-12-20 23:44:43 | 显示全部楼层 |阅读模式
101210qzx11xq339rqx7ts.jpg
◎译  名 罗拉快跑 / 狂奔罗拉 / Run Lola Run
◎片  名 罗拉快跑 Lola rennt
◎年  代 1998
◎国  家 德国
◎类  别 行动 / 惊悚 / 犯罪
◎语  言 德语
◎上映日期 1998-08-20(德国)
◎IMDb评分7.7/10 from 167,781 users
◎IMDb链接http://www.imdb.com/title/tt0130827/
◎豆瓣评分 8.1/10 from 146587 users
◎豆瓣链接 https://movie.douban.com/subject/1292275/
◎片  长 81分钟
◎导  演 汤姆·提克威
◎主  演 弗兰卡·波坦特 Franka Potente
      莫里茨·布莱布特罗伊 Moritz Bleibtreu
      赫伯特·奈普 Herbert Knaup
      妮娜·皮媞 Nina Petri
      阿敏·罗德 Armin Rohde
      约阿希姆·科尔 Joachim Król
      路德格·皮斯特 Ludger Pistor
      苏珊娜·冯·博尔索迪 Suzanne von Borsody
      塞巴斯蒂安·施普尔 Sebastian Schipper
      朱丽叶·林迪希 Julia Lindig
      拉尔斯·鲁道夫 Lars Rudolph
      海诺·费尔希 Heino Ferch

◎简  介 

  罗拉(弗兰卡?波滕特 饰)和曼尼(莫里兹?克雷多 饰)是一对年轻的情人,其中曼尼是一个游手好闲的小混混,而罗拉则是相信“天大的工作有恋爱顶着”的恋爱至上主义者。
  一天,曼尼为老迈完成一项钻石买卖,带着装有10万马克的钱袋等待罗拉的接应,但是罗拉的自行车被人抢走,迟误了约定的接应时候,曼尼只好乘地铁回去。在地铁车箱里,曼尼扶起家旁的乞丐,同时,看见两名差人向他走来。忙乱中,曼尼下了车,居然把钱袋忘在了车箱里。明显,钱袋被乞丐拿走了。此时候隔曼尼和老迈约定碰头交钱的时候只剩下20分钟,假如20分钟之内筹集不到10万马克,曼尼就会被老迈杀死。穷途末路的曼尼打电话向罗拉求救,假如罗拉20分钟之内不能赶到,曼尼只能铤而走险抢劫电话亭劈面的超市。
  考验罗拉恋爱的时辰到了,为了在20分钟内筹到10万马克,救出曼尼,她狂奔在向银里手父亲乞助的路上。



  1. Video
  2. ID             : 1
  3. Format           : AVC
  4. Format/Info          : Advanced Video Codec
  5. Format profile         : [email]High@L4.1[/email]
  6. Format settings, CABAC       : Yes
  7. Format settings, ReFrames      : 2 frames
  8. Format settings, GOP       : M=1, N=10
  9. Codec ID           : V_MPEG4/ISO/AVC
  10. Duration           : 1 h 19 min
  11. Bit rate mode          : Variable
  12. Width            : 1 920 pixels
  13. Height           : 1 080 pixels
  14. Display aspect ratio       : 16:9
  15. Frame rate mode        : Constant
  16. Frame rate           : 23.976 (24000/1001) FPS
  17. Color space          : YUV
  18. Chroma subsampling       : 4:2:0
  19. Bit depth          : 8 bits
  20. Scan type          : Progressive
  21. Title            : Run.Lola.Run.1998.1080p.BluRay.REMUX.AVC.TrueHD.5.1-FGT
  22. Language           : English
  23. Default            : No
  24. Forced           : No

  25. Audio #1
  26. ID             : 2
  27. Format           : TrueHD
  28. Codec ID           : A_TRUEHD
  29. Duration           : 1 h 19 min
  30. Bit rate mode          : Variable
  31. Maximum bit rate         : 5 247 kb/s
  32. Channel(s)           : 6 channels
  33. Channel positions        : Front: L C R, Side: L R, LFE
  34. Sampling rate          : 48.0 kHz
  35. Frame rate           : 1 200.000 FPS (40 spf)
  36. Compression mode         : Lossless
  37. Title            : Run.Lola.Run.1998.1080p.BluRay.REMUX.AVC.TrueHD.5.1-FGT
  38. Language           : English
  39. Default            : Yes
  40. Forced           : No

  41. Audio #2
  42. ID             : 3
  43. Format           : AC-3
  44. Format/Info          : Audio Coding 3
  45. Format settings, Endianness    : Big
  46. Codec ID           : A_AC3
  47. Duration           : 1 h 19 min
  48. Bit rate mode          : Constant
  49. Bit rate           : 640 kb/s
  50. Channel(s)           : 6 channels
  51. Channel positions        : Front: L C R, Side: L R, LFE
  52. Sampling rate          : 48.0 kHz
  53. Frame rate           : 31.250 FPS (1536 spf)
  54. Bit depth          : 16 bits
  55. Compression mode         : Lossy
  56. Stream size          : 366 MiB (2%)
  57. Title            : Run.Lola.Run.1998.1080p.BluRay.REMUX.AVC.TrueHD.5.1-FGT
  58. Language           : English
  59. Service kind         : Complete Main
  60. Default            : No
  61. Forced           : No

  62. Audio #3
  63. ID             : 4
  64. Format           : AC-3
  65. Format/Info          : Audio Coding 3
  66. Format settings, Endianness    : Big
  67. Codec ID           : A_AC3
  68. Duration           : 1 h 19 min
  69. Bit rate mode          : Constant
  70. Bit rate           : 640 kb/s
  71. Channel(s)           : 6 channels
  72. Channel positions        : Front: L C R, Side: L R, LFE
  73. Sampling rate          : 48.0 kHz
  74. Frame rate           : 31.250 FPS (1536 spf)
  75. Bit depth          : 16 bits
  76. Compression mode         : Lossy
  77. Stream size          : 366 MiB (2%)
  78. Title            : Run.Lola.Run.1998.1080p.BluRay.REMUX.AVC.TrueHD.5.1-FGT
  79. Language           : Spanish
  80. Service kind         : Complete Main
  81. Default            : No
  82. Forced           : No

  83. Audio #4
  84. ID             : 5
  85. Format           : AC-3
  86. Format/Info          : Audio Coding 3
  87. Format settings, Endianness    : Big
  88. Codec ID           : A_AC3
  89. Duration           : 1 h 19 min
  90. Bit rate mode          : Constant
  91. Bit rate           : 640 kb/s
  92. Channel(s)           : 6 channels
  93. Channel positions        : Front: L C R, Side: L R, LFE
  94. Sampling rate          : 48.0 kHz
  95. Frame rate           : 31.250 FPS (1536 spf)
  96. Bit depth          : 16 bits
  97. Compression mode         : Lossy
  98. Stream size          : 366 MiB (2%)
  99. Title            : Run.Lola.Run.1998.1080p.BluRay.REMUX.AVC.TrueHD.5.1-FGT
  100. Language           : Portuguese
  101. Service kind         : Complete Main
  102. Default            : No
  103. Forced           : No

  104. Audio #5
  105. ID             : 6
  106. Format           : AC-3
  107. Format/Info          : Audio Coding 3
  108. Mode             : Dolby Digital
  109. Format settings, Endianness    : Big
  110. Codec ID           : A_AC3
  111. Duration           : 1 h 19 min
  112. Bit rate mode          : Constant
  113. Bit rate           : 192 kb/s
  114. Channel(s)           : 2 channels
  115. Channel positions        : Front: L R
  116. Sampling rate          : 48.0 kHz
  117. Frame rate           : 31.250 FPS (1536 spf)
  118. Bit depth          : 16 bits
  119. Compression mode         : Lossy
  120. Stream size          : 110 MiB (1%)
  121. Title            : Run.Lola.Run.1998.1080p.BluRay.REMUX.AVC.TrueHD.5.1-FGT
  122. Language           : English
  123. Service kind         : Complete Main
  124. Default            : No
  125. Forced           : No

  126. Text #1
  127. ID             : 7
  128. Format           : PGS
  129. Muxing mode          : zlib
  130. Codec ID           : S_HDMV/PGS
  131. Codec ID/Info          : Picture based subtitle format used on BDs/HD-DVDs
  132. Title            : English-PGS
  133. Language           : English
  134. Default            : Yes
  135. Forced           : No

  136. Text #2
  137. ID             : 8
  138. Format           : PGS
  139. Muxing mode          : zlib
  140. Codec ID           : S_HDMV/PGS
  141. Codec ID/Info          : Picture based subtitle format used on BDs/HD-DVDs
  142. Title            : English-FORCED-PGS
  143. Language           : English
  144. Default            : No
  145. Forced           : No

  146. Text #3
  147. ID             : 9
  148. Format           : PGS
  149. Muxing mode          : zlib
  150. Codec ID           : S_HDMV/PGS
  151. Codec ID/Info          : Picture based subtitle format used on BDs/HD-DVDs
  152. Title            : English-SDH-PGS
  153. Language           : English
  154. Default            : No
  155. Forced           : No

  156. Text #4
  157. ID             : 10
  158. Format           : PGS
  159. Muxing mode          : zlib
  160. Codec ID           : S_HDMV/PGS
  161. Codec ID/Info          : Picture based subtitle format used on BDs/HD-DVDs
  162. Title            : French-PGS
  163. Language           : French
  164. Default            : No
  165. Forced           : No

  166. Text #5
  167. ID             : 11
  168. Format           : PGS
  169. Muxing mode          : zlib
  170. Codec ID           : S_HDMV/PGS
  171. Codec ID/Info          : Picture based subtitle format used on BDs/HD-DVDs
  172. Title            : Spanish-PGS
  173. Language           : Spanish
  174. Default            : No
  175. Forced           : No

  176. Text #6
  177. ID             : 12
  178. Format           : PGS
  179. Muxing mode          : zlib
  180. Codec ID           : S_HDMV/PGS
  181. Codec ID/Info          : Picture based subtitle format used on BDs/HD-DVDs
  182. Title            : Portuguese-PGS
  183. Language           : Portuguese
  184. Default            : No
  185. Forced           : No

  186. Text #7
  187. ID             : 13
  188. Format           : PGS
  189. Muxing mode          : zlib
  190. Codec ID           : S_HDMV/PGS
  191. Codec ID/Info          : Picture based subtitle format used on BDs/HD-DVDs
  192. Title            : English-COMMENTARY-PGS
  193. Language           : English
  194. Default            : No
  195. Forced           : No

  196. Text #8
  197. ID             : 14
  198. Format           : PGS
  199. Muxing mode          : zlib
  200. Codec ID           : S_HDMV/PGS
  201. Codec ID/Info          : Picture based subtitle format used on BDs/HD-DVDs
  202. Title            : Spanish-COMMENTARY-PGS
  203. Language           : Spanish
  204. Default            : No
  205. Forced           : No

  206. Text #9
  207. ID             : 15
  208. Format           : PGS
  209. Muxing mode          : zlib
  210. Codec ID           : S_HDMV/PGS
  211. Codec ID/Info          : Picture based subtitle format used on BDs/HD-DVDs
  212. Title            : Portuguese-COMMENTARY-PGS
  213. Language           : Portuguese
  214. Default            : No
  215. Forced           : No

  216. Menu
  217. 00:00:00.000         : en:Chapter 01
  218. 00:04:39.279         : en:Chapter 02
  219. 00:08:08.070         : en:Chapter 03
  220. 00:11:46.622         : en:Chapter 04
  221. 00:16:18.560         : en:Chapter 05
  222. 00:18:34.738         : en:Chapter 06
  223. 00:24:54.659         : en:Chapter 07
  224. 00:29:23.303         : en:Chapter 08
  225. 00:34:47.960         : en:Chapter 09
  226. 00:38:36.814         : en:Chapter 10
  227. 00:44:36.674         : en:Chapter 11
  228. 00:49:09.863         : en:Chapter 12
  229. 00:54:40.318         : en:Chapter 13
  230. 00:57:51.217         : en:Chapter 14
  231. 01:04:40.585         : en:Chapter 15
  232. 01:09:26.620         : en:Chapter 16



复制代码
复制代码
101210vffzrmg5ms6rmw0m.jpg 101210jscda3a3s6sskqn5.jpg 101210cli0mynjz0iieh11.jpg 101210akikoxkgkcckw0g6.jpg 101210uywrvv83rkg883dk.jpg 101210dn72q96cgz7pzykt.jpg

                                




回复

使用道具 举报

懒得打字嘛,点击右侧快捷回复 【右侧内容,后台自定义】
您需要登录后才可以回帖 登录 | 立即加入

本版积分规则

Archiver| |网站地图

Copyright © 2024 Comsenz Inc. Powered by 蓝光电影网

本站内容由用户自主分享和转载自互联网,转载目的在于传递更多信息,并不代表本网赞同其观点和对其真实性负责。

如有侵权、违反国家法律政策行为,请联系我们,我们会第一时间及时清除和处理!

举报反馈邮箱:4k1080.com@gmail.com

快速回复 返回顶部 返回列表