找回密码

查看: 2872|回复: 0

[恐怖] 犬岛的诅咒 Humongous.1982.UNRATED.1080p.BluRay.REMUX.AVC.DTS-HD.MA.2.0-FGT 22.06GB

[复制链接]
蓝光币
1971
发表于 2017-12-20 23:45:11 | 显示全部楼层 |阅读模式
101256hfz2yl5sc0yy0zly.jpg
◎译  名 犬岛的诅咒
◎片  名 犬岛的诅咒 Humongous
◎年  代 1982
◎国  家 加拿大
◎类  别 可骇
◎语  言 英语
◎上映日期 1982-06-11
◎IMDb评分4.4/10 from 1,194 users
◎IMDb链接http://www.imdb.com/title/tt0082537/
◎豆瓣评分 今朝无人评价
◎豆瓣链接 https://movie.douban.com/subject/2365733/
◎片  长 94 分钟 / USA: 97 分钟
◎导  演 Paul Lynch
◎主  演 Janet Julian
      David Wallace
      John Wildman

◎简  介 

  Woman is raped at cocktail party. Years later, her son grows up to be a big hairy murderous monster who stalks a group of teens shipwrecked on his island. Written by Humberto Amador



  1. Video
  2. ID             : 1
  3. Format           : AVC
  4. Format/Info          : Advanced Video Codec
  5. Format profile         : [email]High@L4.1[/email]
  6. Format settings, CABAC       : Yes
  7. Format settings, ReFrames      : 3 frames
  8. Format settings, GOP       : M=3, N=12
  9. Codec ID           : V_MPEG4/ISO/AVC
  10. Duration           : 1 h 33 min
  11. Bit rate mode          : Variable
  12. Maximum bit rate         : 35.0 Mb/s
  13. Width            : 1 920 pixels
  14. Height           : 1 080 pixels
  15. Display aspect ratio       : 16:9
  16. Frame rate mode        : Constant
  17. Frame rate           : 23.976 (24000/1001) FPS
  18. Standard           : NTSC
  19. Color space          : YUV
  20. Chroma subsampling       : 4:2:0
  21. Bit depth          : 8 bits
  22. Scan type          : Progressive
  23. Title            : Humongous.1982.1080p.BluRay.REMUX.AVC.DTS-HD.MA.2.0-FGT
  24. Language           : English
  25. Default            : No
  26. Forced           : No
  27. Color range          : Limited
  28. Color primaries        : BT.709
  29. Transfer characteristics     : BT.709
  30. Matrix coefficients        : BT.709

  31. Audio #1
  32. ID             : 2
  33. Format           : DTS
  34. Format/Info          : Digital Theater Systems
  35. Format profile         : MA / Core
  36. Mode             : 16
  37. Format settings, Endianness    : Big
  38. Codec ID           : A_DTS
  39. Duration           : 1 h 33 min
  40. Bit rate mode          : Variable / Constant
  41. Bit rate           : Unknown / 1 509 kb/s
  42. Channel(s)           : 2 channels
  43. Channel positions        : Front: L R
  44. Sampling rate          : 48.0 kHz
  45. Frame rate           : 93.750 FPS (512 spf)
  46. Bit depth          : 24 bits
  47. Compression mode         : Lossless / Lossy
  48. Title            : Humongous.1982.1080p.BluRay.REMUX.AVC.DTS-HD.MA.2.0-FGT
  49. Language           : English
  50. Default            : Yes
  51. Forced           : No

  52. Audio #2
  53. ID             : 3
  54. Format           : DTS
  55. Format/Info          : Digital Theater Systems
  56. Mode             : 16
  57. Format settings, Endianness    : Big
  58. Codec ID           : A_DTS
  59. Duration           : 1 h 33 min
  60. Bit rate mode          : Constant
  61. Bit rate           : 1 509 kb/s
  62. Channel(s)           : 2 channels
  63. Channel positions        : Front: L R
  64. Sampling rate          : 48.0 kHz
  65. Frame rate           : 93.750 FPS (512 spf)
  66. Bit depth          : 24 bits
  67. Compression mode         : Lossy
  68. Stream size          : 1 011 MiB (4%)
  69. Title            : Humongous.1982.1080p.BluRay.REMUX.AVC.DTS-HD.MA.2.0-FGT
  70. Language           : English
  71. Default            : No
  72. Forced           : No

  73. Audio #3
  74. ID             : 4
  75. Format           : AC-3
  76. Format/Info          : Audio Coding 3
  77. Format settings, Endianness    : Big
  78. Codec ID           : A_AC3
  79. Duration           : 1 h 33 min
  80. Bit rate mode          : Constant
  81. Bit rate           : 192 kb/s
  82. Channel(s)           : 2 channels
  83. Channel positions        : Front: L R
  84. Sampling rate          : 48.0 kHz
  85. Frame rate           : 31.250 FPS (1536 spf)
  86. Bit depth          : 16 bits
  87. Compression mode         : Lossy
  88. Stream size          : 129 MiB (1%)
  89. Title            : Humongous.1982.1080p.BluRay.REMUX.AVC.DTS-HD.MA.2.0-FGT
  90. Language           : English
  91. Service kind         : Complete Main
  92. Default            : No
  93. Forced           : No

  94. Menu
  95. 00:00:00.000         : en:Chapter 01
  96. 00:07:47.467         : en:Chapter 02
  97. 00:14:32.037         : en:Chapter 03
  98. 00:17:20.998         : en:Chapter 04
  99. 00:21:45.429         : en:Chapter 05
  100. 00:28:41.261         : en:Chapter 06
  101. 00:36:24.140         : en:Chapter 07
  102. 00:41:52.134         : en:Chapter 08
  103. 00:49:37.933         : en:Chapter 09
  104. 00:56:09.366         : en:Chapter 10
  105. 01:04:21.232         : en:Chapter 11
  106. 01:12:28.761         : en:Chapter 12
  107. 01:20:28.782         : en:Chapter 13
  108. 01:32:10.274         : en:Chapter 14



复制代码
复制代码
101256pkx1zkbjjeljozxa.jpg 101256c7hlc7w8z7ci7upz.jpg 101256pqopkqbpk625lrx2.jpg 101256d7qdg2ghppa7gcxc.jpg 101256c7t5799tb9nmbbkl.jpg 101256d7mm65oee5eeoee4.jpg

                                




回复

使用道具 举报

懒得打字嘛,点击右侧快捷回复 【右侧内容,后台自定义】
您需要登录后才可以回帖 登录 | 立即加入

本版积分规则

Archiver| |网站地图

Copyright © 2024 Comsenz Inc. Powered by 蓝光电影网

本站内容由用户自主分享和转载自互联网,转载目的在于传递更多信息,并不代表本网赞同其观点和对其真实性负责。

如有侵权、违反国家法律政策行为,请联系我们,我们会第一时间及时清除和处理!

举报反馈邮箱:4k1080.com@gmail.com

快速回复 返回顶部 返回列表