找回密码

查看: 2520|回复: 1

[剧情] 迷失Z城/失落之城 The.Lost.City.of.Z.2016.1080p.BluRay.REMUX.AVC.DTS-HD.MA.5.1-FGT 39.94GB

[复制链接]
蓝光币
1974
发表于 2017-12-20 23:55:01 | 显示全部楼层 |阅读模式
101617k69559oo5zuffur6.jpg
◎译  名 丢失Z城 / 失落之城
◎片  名 丢失Z城 The Lost City of Z
◎年  代 2016
◎国  家 美国
◎类  别 剧情 / 行动 / 列传 / 历史 / 冒险
◎语  言 英语 / 西班牙语 / 葡萄牙语 / 德语
◎上映日期 2017-06-02(中国大陆) / 2016-10-15(纽约电影节) / 2017-04-14(美国)
◎IMDb评分6.9/10 from 15,107 users
◎IMDb链接http://www.imdb.com/title/tt1212428/
◎豆瓣评分 6.7/10 from 6256 users
◎豆瓣链接 https://movie.douban.com/subject/3025669/
◎片  长 141分钟 / 104分钟(中国大陆)
◎导  演 詹姆士·格雷
◎主  演 查理·汉纳姆 Charlie Hunnam
      罗伯特·帕丁森 Robert Pattinson
      西耶娜·米勒 Sienna Miller
      汤姆·霍兰德 Tom Holland
      爱德华·阿什利 Edward Ashley
      安古斯·麦克菲登 Angus Macfadyen
      伊恩·麦克迪阿梅德 Ian McDiarmid
      克莱夫·弗朗西斯 Clive Francis
      马修·桑德兰 Matthew Sunderland
      亚历山大·约凡诺维奇 Aleksandar Jovanovic
      叶莲娜·索洛维 Yelena Solovey
      鲍比·斯莫德里奇 Bobby Smalldridge

◎简  介 

  英国探险家珀西·福斯特(查理·汉纳姆 Charlie Hunnam 饰)深入奥秘的南美洲亚马逊森林探险,竟发现未知的文化生活迹象,他回到英国公然这个意义深远的严重发现,却被当做笑话嘲弄,没有人愿意相信他的话。在爱妻尼娜(西耶娜·米勒 Sienna Miller 饰)无怨无悔的支持下,福斯特决心率领儿子杰克(汤姆·霍兰德 Tom Holland 饰)重返亚马逊森林,寻觅古文化存在的证据,一行人却古怪消失,今后再无任何消息,成为史上最奥秘又悬疑的失落事务。



  1. Video
  2. ID             : 1
  3. Format           : AVC
  4. Format/Info          : Advanced Video Codec
  5. Format profile         : [email]High@L4.1[/email]
  6. Format settings, CABAC       : Yes
  7. Format settings, ReFrames      : 4 frames
  8. Codec ID           : V_MPEG4/ISO/AVC
  9. Duration           : 2 h 21 min
  10. Bit rate mode          : Variable
  11. Maximum bit rate         : 37.0 Mb/s
  12. Width            : 1 920 pixels
  13. Height           : 1 080 pixels
  14. Display aspect ratio       : 16:9
  15. Frame rate mode        : Constant
  16. Frame rate           : 23.976 (24000/1001) FPS
  17. Color space          : YUV
  18. Chroma subsampling       : 4:2:0
  19. Bit depth          : 8 bits
  20. Scan type          : Progressive
  21. Title            : The.Lost.City.of.Z.2016.1080p.BluRay.REMUX.AVC.DTS-HD.MA.5.1-FGT
  22. Language           : English
  23. Default            : No
  24. Forced           : No

  25. Audio #1
  26. ID             : 2
  27. Format           : DTS
  28. Format/Info          : Digital Theater Systems
  29. Format profile         : MA / Core
  30. Mode             : 16
  31. Format settings, Endianness    : Big
  32. Codec ID           : A_DTS
  33. Duration           : 2 h 21 min
  34. Bit rate mode          : Variable / Constant
  35. Bit rate           : Unknown / 1 509 kb/s
  36. Channel(s)           : 6 channels
  37. Channel positions        : Front: L C R, Side: L R, LFE
  38. Sampling rate          : 48.0 kHz
  39. Frame rate           : 93.750 FPS (512 spf)
  40. Bit depth          : 24 bits
  41. Compression mode         : Lossless / Lossy
  42. Title            : The.Lost.City.of.Z.2016.1080p.BluRay.REMUX.AVC.DTS-HD.MA.5.1-FGT
  43. Language           : English
  44. Default            : Yes
  45. Forced           : No

  46. Audio #2
  47. ID             : 3
  48. Format           : DTS
  49. Format/Info          : Digital Theater Systems
  50. Mode             : 16
  51. Format settings, Endianness    : Big
  52. Codec ID           : A_DTS
  53. Duration           : 2 h 21 min
  54. Bit rate mode          : Constant
  55. Bit rate           : 1 509 kb/s
  56. Channel(s)           : 6 channels
  57. Channel positions        : Front: L C R, Side: L R, LFE
  58. Sampling rate          : 48.0 kHz
  59. Frame rate           : 93.750 FPS (512 spf)
  60. Bit depth          : 24 bits
  61. Compression mode         : Lossy
  62. Stream size          : 1.49GB (4%)
  63. Title            : The.Lost.City.of.Z.2016.1080p.BluRay.REMUX.AVC.DTS-HD.MA.5.1-FGT
  64. Language           : English
  65. Default            : No
  66. Forced           : No

  67. Audio #3
  68. ID             : 4
  69. Format           : DTS
  70. Format/Info          : Digital Theater Systems
  71. Mode             : 16
  72. Format settings, Endianness    : Big
  73. Codec ID           : A_DTS
  74. Duration           : 2 h 21 min
  75. Bit rate mode          : Constant
  76. Bit rate           : 768 kb/s
  77. Channel(s)           : 6 channels
  78. Channel positions        : Front: L C R, Side: L R, LFE
  79. Sampling rate          : 48.0 kHz
  80. Frame rate           : 93.750 FPS (512 spf)
  81. Bit depth          : 24 bits
  82. Compression mode         : Lossy
  83. Stream size          : 776 MiB (2%)
  84. Title            : The.Lost.City.of.Z.2016.1080p.BluRay.REMUX.AVC.DTS-HD.MA.5.1-FGT
  85. Language           : Spanish
  86. Default            : No
  87. Forced           : No

  88. Audio #4
  89. ID             : 5
  90. Format           : AC-3
  91. Format/Info          : Audio Coding 3
  92. Format settings, Endianness    : Big
  93. Codec ID           : A_AC3
  94. Duration           : 2 h 21 min
  95. Bit rate mode          : Constant
  96. Bit rate           : 192 kb/s
  97. Channel(s)           : 2 channels
  98. Channel positions        : Front: L R
  99. Sampling rate          : 48.0 kHz
  100. Frame rate           : 31.250 FPS (1536 spf)
  101. Bit depth          : 16 bits
  102. Compression mode         : Lossy
  103. Stream size          : 194 MiB (0%)
  104. Title            : The.Lost.City.of.Z.2016.1080p.BluRay.REMUX.AVC.DTS-HD.MA.5.1-FGT
  105. Language           : English
  106. Service kind         : Complete Main
  107. Default            : No
  108. Forced           : No

  109. Text #1
  110. ID             : 6
  111. Format           : PGS
  112. Muxing mode          : zlib
  113. Codec ID           : S_HDMV/PGS
  114. Codec ID/Info          : Picture based subtitle format used on BDs/HD-DVDs
  115. Title            : English-PGS
  116. Language           : English
  117. Default            : Yes
  118. Forced           : No

  119. Text #2
  120. ID             : 7
  121. Format           : PGS
  122. Muxing mode          : zlib
  123. Codec ID           : S_HDMV/PGS
  124. Codec ID/Info          : Picture based subtitle format used on BDs/HD-DVDs
  125. Title            : Spanish-PGS
  126. Language           : Spanish
  127. Default            : No
  128. Forced           : No

  129. Menu
  130. 00:00:00.000         : en:Chapter 01
  131. 00:08:21.918         : en:Chapter 02
  132. 00:15:33.015         : en:Chapter 03
  133. 00:21:29.204         : en:Chapter 04
  134. 00:27:10.211         : en:Chapter 05
  135. 00:34:57.762         : en:Chapter 06
  136. 00:44:59.279         : en:Chapter 07
  137. 00:49:36.598         : en:Chapter 08
  138. 00:58:26.085         : en:Chapter 09
  139. 01:04:43.504         : en:Chapter 10
  140. 01:11:10.766         : en:Chapter 11
  141. 01:21:22.460         : en:Chapter 12
  142. 01:27:42.590         : en:Chapter 13
  143. 01:30:42.728         : en:Chapter 14
  144. 01:39:46.438         : en:Chapter 15
  145. 01:44:00.150         : en:Chapter 16
  146. 01:51:40.360         : en:Chapter 17
  147. 01:56:10.755         : en:Chapter 18
  148. 02:01:43.212         : en:Chapter 19
  149. 02:08:34.123         : en:Chapter 20



复制代码
复制代码
101617mngrxrx9mqa9zrhm.jpg 101617awzqswuun4qws0hn.jpg 101617fvkyzpl2ly211d22.jpg 101617boo0r6qs0os9a9xx.jpg 101617mfc6y4s4h0mzyj5s.jpg 101617av9yzd77ddhhxwah.jpg






回复

使用道具 举报

懒得打字嘛,点击右侧快捷回复 【右侧内容,后台自定义】
您需要登录后才可以回帖 登录 | 立即加入

本版积分规则

Archiver| |网站地图

Copyright © 2024 Comsenz Inc. Powered by 蓝光电影网

本站内容由用户自主分享和转载自互联网,转载目的在于传递更多信息,并不代表本网赞同其观点和对其真实性负责。

如有侵权、违反国家法律政策行为,请联系我们,我们会第一时间及时清除和处理!

举报反馈邮箱:4k1080.com@gmail.com

快速回复 返回顶部 返回列表