找回密码

查看: 2858|回复: 1

[剧情] 黑带精英2/精英中的精英2 Best.of.the.Best.2.1993.1080p.BluRay.REMUX.AVC.DTS-HD.MA.5.1-FGT 19.11GB

[复制链接]
蓝光币
1992
发表于 2017-12-20 23:56:57 | 显示全部楼层 |阅读模式
102943m397lv3mzb9thlv1.jpg
◎译  名 黑带精英2 / 精英中的精英2
◎片  名 黑带精英2 Best of the Best 2
◎年  代 1993
◎国  家 美国
◎类  别 剧情 / 行动 / 惊悚 / 犯罪
◎语  言 英语
◎上映日期 1993-03-05
◎IMDb评分5.4/10 from 4,398 users
◎IMDb链接http://www.imdb.com/title/tt0106393/
◎豆瓣评分 今朝无人评价
◎豆瓣链接 https://movie.douban.com/subject/2216974/
◎片  长 101 分钟
◎导  演 Robert Radler
◎主  演 埃里克·罗伯茨 Eric Roberts
      Phillip Rhee
      克里斯·潘 Chris Penn
      拉尔夫·默勒 Ralf Moeller
      梅格·福斯特 Meg Foster

◎简  介 

  地下搏击会的黑带Travis被邪恶的武术高手布里克利杀死,而Travis好友亚历克斯的儿子目击此事,亚历克斯和同伴汤米誓词为好友报仇, 他们得打败布里克利,和封闭搏击会。



  1. Video
  2. ID             : 1
  3. Format           : AVC
  4. Format/Info          : Advanced Video Codec
  5. Format profile         : [email]High@L4.1[/email]
  6. Format settings, CABAC       : Yes
  7. Format settings, ReFrames      : 4 frames
  8. Codec ID           : V_MPEG4/ISO/AVC
  9. Duration           : 1 h 41 min
  10. Bit rate mode          : Variable
  11. Maximum bit rate         : 35.0 Mb/s
  12. Width            : 1 920 pixels
  13. Height           : 1 080 pixels
  14. Display aspect ratio       : 16:9
  15. Frame rate mode        : Constant
  16. Frame rate           : 24.000 FPS
  17. Standard           : Component
  18. Color space          : YUV
  19. Chroma subsampling       : 4:2:0
  20. Bit depth          : 8 bits
  21. Scan type          : Progressive
  22. Title            : Best.of.the.Best.2.1993.1080p.BluRay.REMUX.AVC.DTS-HD.MA.5.1-FGT
  23. Language           : English
  24. Default            : No
  25. Forced           : No
  26. Color range          : Limited
  27. Color primaries        : BT.709
  28. Transfer characteristics     : BT.709
  29. Matrix coefficients        : BT.709

  30. Audio #1
  31. ID             : 2
  32. Format           : DTS
  33. Format/Info          : Digital Theater Systems
  34. Format profile         : MA / Core
  35. Mode             : 16
  36. Format settings, Endianness    : Big
  37. Codec ID           : A_DTS
  38. Duration           : 1 h 41 min
  39. Bit rate mode          : Variable / Constant
  40. Bit rate           : Unknown / 768 kb/s
  41. Channel(s)           : 6 channels
  42. Channel positions        : Front: L C R, Side: L R, LFE
  43. Sampling rate          : 48.0 kHz
  44. Frame rate           : 93.750 FPS (512 spf)
  45. Bit depth          : 16 bits
  46. Compression mode         : Lossless / Lossy
  47. Title            : Best.of.the.Best.2.1993.1080p.BluRay.REMUX.AVC.DTS-HD.MA.5.1-FGT
  48. Language           : English
  49. Default            : Yes
  50. Forced           : No

  51. Audio #2
  52. ID             : 3
  53. Format           : DTS
  54. Format/Info          : Digital Theater Systems
  55. Mode             : 16
  56. Format settings, Endianness    : Big
  57. Codec ID           : A_DTS
  58. Duration           : 1 h 41 min
  59. Bit rate mode          : Constant
  60. Bit rate           : 768 kb/s
  61. Channel(s)           : 6 channels
  62. Channel positions        : Front: L C R, Side: L R, LFE
  63. Sampling rate          : 48.0 kHz
  64. Frame rate           : 93.750 FPS (512 spf)
  65. Bit depth          : 16 bits
  66. Compression mode         : Lossy
  67. Stream size          : 559 MiB (3%)
  68. Title            : Best.of.the.Best.2.1993.1080p.BluRay.REMUX.AVC.DTS-HD.MA.5.1-FGT
  69. Language           : English
  70. Default            : No
  71. Forced           : No

  72. Audio #3
  73. ID             : 4
  74. Format           : DTS
  75. Format/Info          : Digital Theater Systems
  76. Mode             : 16
  77. Format settings, Endianness    : Big
  78. Codec ID           : A_DTS
  79. Duration           : 1 h 41 min
  80. Bit rate mode          : Constant
  81. Bit rate           : 384 kb/s
  82. Channel(s)           : 2 channels
  83. Channel positions        : Front: L R
  84. Sampling rate          : 48.0 kHz
  85. Frame rate           : 93.750 FPS (512 spf)
  86. Bit depth          : 16 bits
  87. Compression mode         : Lossy
  88. Stream size          : 279 MiB (1%)
  89. Title            : Best.of.the.Best.2.1993.1080p.BluRay.REMUX.AVC.DTS-HD.MA.5.1-FGT
  90. Language           : English
  91. Default            : No
  92. Forced           : No

  93. Menu
  94. 00:00:00.000         : en:Chapter 01
  95. 00:05:05.875         : en:Chapter 02
  96. 00:15:20.000         : en:Chapter 03
  97. 00:23:18.041         : en:Chapter 04
  98. 00:36:00.958         : en:Chapter 05
  99. 00:45:35.083         : en:Chapter 06
  100. 00:53:53.333         : en:Chapter 07
  101. 01:01:21.916         : en:Chapter 08
  102. 01:09:22.041         : en:Chapter 09
  103. 01:18:58.208         : en:Chapter 10
  104. 01:23:28.333         : en:Chapter 11
  105. 01:32:56.291         : en:Chapter 12



复制代码
复制代码
102943whozmgqw5g5mj5a5.jpg 102943ke92u512xx9uezb5.jpg 102943kz5405iki7a33y4l.jpg 102943b83xx3hzbepodz01.jpg 102943ps2b2vaz8asbyn2y.jpg 102943j3y4km9695hy5k4w.jpg






回复

使用道具 举报

懒得打字嘛,点击右侧快捷回复 【右侧内容,后台自定义】
您需要登录后才可以回帖 登录 | 立即加入

本版积分规则

Archiver| |网站地图

Copyright © 2024 Comsenz Inc. Powered by 蓝光电影网

本站内容由用户自主分享和转载自互联网,转载目的在于传递更多信息,并不代表本网赞同其观点和对其真实性负责。

如有侵权、违反国家法律政策行为,请联系我们,我们会第一时间及时清除和处理!

举报反馈邮箱:4k1080.com@gmail.com

快速回复 返回顶部 返回列表