找回密码

查看: 3081|回复: 2

[动画] 宝贝老板/娃娃老板 The.Boss.Baby.2017.1080p.BluRay.REMUX.AVC.DTS-HD.MA.7.1-FGT 25.67GB

[复制链接]
蓝光币
1992
发表于 2017-12-20 23:59:36 | 显示全部楼层 |阅读模式
103321l8w4knchwj9chc4z.jpg
◎译  名 宝贝老板 / 娃娃老板 / 波士BB
◎片  名 宝贝老板 The Boss Baby
◎年  代 2017
◎国  家 美国
◎类  别 笑剧 / 动画
◎语  言 英语
◎上映日期 2017-03-12(迈阿密电影节) / 2017-03-31(美国)
◎IMDb评分6.4/10 from 35,716 users
◎IMDb链接http://www.imdb.com/title/tt3874544/
◎豆瓣评分 7.3/10 from 12157 users
◎豆瓣链接 https://movie.douban.com/subject/25907029/
◎片  长 97分钟
◎导  演 汤姆·麦格拉思
◎主  演 亚历克·鲍德温 Alec Baldwin
      迈尔斯·克里斯托弗·巴克什 Miles Christopher Bakshi
      吉米·坎摩尔 Jimmy Kimmel
      丽莎·库卓 Lisa Kudrow
      史蒂夫·布西密 Steve Buscemi
      托比·马奎尔 Tobey Maguire
      詹姆斯·麦格拉思 James McGrath
      康拉德·弗农 Conrad Vernon
      薇薇安·叶 ViviAnn Yee
      小埃里克·贝尔 Eric Bell Jr.
      大卫·索伦 David Soren
      伊迪·米尔曼 Edie Mirman
      詹姆斯·雷恩 James Ryan
      沃尔特·道恩 Walt Dohrn
      朱尔斯·温特 Jules Winter

◎简  介 

  孩子究竟是从那里来的呢?分歧于人们以往的认知,小Baby们居然是批量生产的?!《娃娃老板》的配角小男孩Timothy原本是爸爸妈妈心中唯一的宝贝,可在一个穿着西装提着公文包的小婴儿的忽然出现以后,他一会儿就得宠了,爸爸妈妈的心机全都在弟弟身上,让他很是不爽。
  不外更让他 震动的是,这个弟弟不但穿得像个老板,还是个来自Baby公司负担重任心机周密的优异员工?!为了赶紧摆脱这个小Baby,让爸爸妈妈重新回到自己的身旁,Timothy必须和『弟弟』联手阻止Puppy公司倾覆天下的诡计......



  1. Video
  2. ID             : 1
  3. Format           : AVC
  4. Format/Info          : Advanced Video Codec
  5. Format profile         : [email]High@L4.1[/email]
  6. Format settings, CABAC       : Yes
  7. Format settings, ReFrames      : 4 frames
  8. Codec ID           : V_MPEG4/ISO/AVC
  9. Duration           : 1 h 37 min
  10. Bit rate mode          : Variable
  11. Maximum bit rate         : 31.0 Mb/s
  12. Width            : 1 920 pixels
  13. Height           : 1 080 pixels
  14. Display aspect ratio       : 16:9
  15. Frame rate mode        : Constant
  16. Frame rate           : 23.976 (24000/1001) FPS
  17. Color space          : YUV
  18. Chroma subsampling       : 4:2:0
  19. Bit depth          : 8 bits
  20. Scan type          : Progressive
  21. Title            : The.Boss.Baby.2017.1080p.BluRay.REMUX.AVC.DTS-HD.MA.7.1-FGT
  22. Language           : English
  23. Default            : No
  24. Forced           : No

  25. Audio #1
  26. ID             : 2
  27. Format           : DTS
  28. Format/Info          : Digital Theater Systems
  29. Format profile         : MA / ES Matrix / Core
  30. Mode             : 16
  31. Format settings, Endianness    : Big
  32. Codec ID           : A_DTS
  33. Duration           : 1 h 37 min
  34. Bit rate mode          : Variable / Constant / Constant
  35. Bit rate           : Unknown / 1 509 kb/s / 1 509 kb/s
  36. Channel(s)           : 8 channels / 7 channels / 6 channels
  37. Channel positions        : Front: L C R, Side: L R, Back: L R, LFE / Front: L C R, Side: L R, Back: C, LFE / Front: L C R, Side: L R, LFE
  38. Sampling rate          : 48.0 kHz
  39. Frame rate           : 93.750 FPS (512 spf)
  40. Bit depth          : 24 bits
  41. Compression mode         : Lossless / Lossy / Lossy
  42. Title            : The.Boss.Baby.2017.1080p.BluRay.REMUX.AVC.DTS-HD.MA.7.1-FGT
  43. Language           : English
  44. Default            : Yes
  45. Forced           : No

  46. Audio #2
  47. ID             : 3
  48. Format           : DTS
  49. Format/Info          : Digital Theater Systems
  50. Format profile         : ES Matrix / Core
  51. Mode             : 16
  52. Format settings, Endianness    : Big
  53. Codec ID           : A_DTS
  54. Duration           : 1 h 37 min
  55. Bit rate mode          : Constant
  56. Bit rate           : 1 509 kb/s
  57. Channel(s)           : 7 channels / 6 channels
  58. Channel positions        : Front: L C R, Side: L R, Back: C, LFE / Front: L C R, Side: L R, LFE
  59. Sampling rate          : 48.0 kHz
  60. Frame rate           : 93.750 FPS (512 spf)
  61. Bit depth          : 24 bits
  62. Compression mode         : Lossy
  63. Stream size          : 1.03GB (4%)
  64. Title            : The.Boss.Baby.2017.1080p.BluRay.REMUX.AVC.DTS-HD.MA.7.1-FGT
  65. Language           : English
  66. Default            : No
  67. Forced           : No

  68. Audio #3
  69. ID             : 4
  70. Format           : AC-3
  71. Format/Info          : Audio Coding 3
  72. Format settings, Endianness    : Big
  73. Codec ID           : A_AC3
  74. Duration           : 1 h 37 min
  75. Bit rate mode          : Constant
  76. Bit rate           : 448 kb/s
  77. Channel(s)           : 6 channels
  78. Channel positions        : Front: L C R, Side: L R, LFE
  79. Sampling rate          : 48.0 kHz
  80. Frame rate           : 31.250 FPS (1536 spf)
  81. Bit depth          : 16 bits
  82. Compression mode         : Lossy
  83. Stream size          : 312 MiB (1%)
  84. Title            : The.Boss.Baby.2017.1080p.BluRay.REMUX.AVC.DTS-HD.MA.7.1-FGT
  85. Language           : English
  86. Service kind         : Complete Main
  87. Default            : No
  88. Forced           : No

  89. Audio #4
  90. ID             : 5
  91. Format           : AC-3
  92. Format/Info          : Audio Coding 3
  93. Format settings, Endianness    : Big
  94. Codec ID           : A_AC3
  95. Duration           : 1 h 37 min
  96. Bit rate mode          : Constant
  97. Bit rate           : 448 kb/s
  98. Channel(s)           : 6 channels
  99. Channel positions        : Front: L C R, Side: L R, LFE
  100. Sampling rate          : 48.0 kHz
  101. Frame rate           : 31.250 FPS (1536 spf)
  102. Bit depth          : 16 bits
  103. Compression mode         : Lossy
  104. Stream size          : 312 MiB (1%)
  105. Title            : The.Boss.Baby.2017.1080p.BluRay.REMUX.AVC.DTS-HD.MA.7.1-FGT
  106. Language           : Spanish
  107. Service kind         : Complete Main
  108. Default            : No
  109. Forced           : No

  110. Audio #5
  111. ID             : 6
  112. Format           : AC-3
  113. Format/Info          : Audio Coding 3
  114. Format settings, Endianness    : Big
  115. Codec ID           : A_AC3
  116. Duration           : 1 h 37 min
  117. Bit rate mode          : Constant
  118. Bit rate           : 448 kb/s
  119. Channel(s)           : 6 channels
  120. Channel positions        : Front: L C R, Side: L R, LFE
  121. Sampling rate          : 48.0 kHz
  122. Frame rate           : 31.250 FPS (1536 spf)
  123. Bit depth          : 16 bits
  124. Compression mode         : Lossy
  125. Stream size          : 312 MiB (1%)
  126. Title            : The.Boss.Baby.2017.1080p.BluRay.REMUX.AVC.DTS-HD.MA.7.1-FGT
  127. Language           : French
  128. Service kind         : Complete Main
  129. Default            : No
  130. Forced           : No

  131. Audio #6
  132. ID             : 7
  133. Format           : DTS
  134. Format/Info          : Digital Theater Systems
  135. Mode             : 16
  136. Format settings, Endianness    : Big
  137. Codec ID           : A_DTS
  138. Duration           : 1 h 37 min
  139. Bit rate mode          : Constant
  140. Bit rate           : 768 kb/s
  141. Channel(s)           : 6 channels
  142. Channel positions        : Front: L C R, Side: L R, LFE
  143. Sampling rate          : 48.0 kHz
  144. Frame rate           : 93.750 FPS (512 spf)
  145. Bit depth          : 24 bits
  146. Compression mode         : Lossy
  147. Stream size          : 536 MiB (2%)
  148. Title            : The.Boss.Baby.2017.1080p.BluRay.REMUX.AVC.DTS-HD.MA.7.1-FGT
  149. Language           : Danish
  150. Default            : No
  151. Forced           : No

  152. Audio #7
  153. ID             : 8
  154. Format           : DTS
  155. Format/Info          : Digital Theater Systems
  156. Mode             : 16
  157. Format settings, Endianness    : Big
  158. Codec ID           : A_DTS
  159. Duration           : 1 h 37 min
  160. Bit rate mode          : Constant
  161. Bit rate           : 768 kb/s
  162. Channel(s)           : 6 channels
  163. Channel positions        : Front: L C R, Side: L R, LFE
  164. Sampling rate          : 48.0 kHz
  165. Frame rate           : 93.750 FPS (512 spf)
  166. Bit depth          : 24 bits
  167. Compression mode         : Lossy
  168. Stream size          : 536 MiB (2%)
  169. Title            : The.Boss.Baby.2017.1080p.BluRay.REMUX.AVC.DTS-HD.MA.7.1-FGT
  170. Language           : Finnish
  171. Default            : No
  172. Forced           : No

  173. Audio #8
  174. ID             : 9
  175. Format           : DTS
  176. Format/Info          : Digital Theater Systems
  177. Mode             : 16
  178. Format settings, Endianness    : Big
  179. Codec ID           : A_DTS
  180. Duration           : 1 h 37 min
  181. Bit rate mode          : Constant
  182. Bit rate           : 768 kb/s
  183. Channel(s)           : 6 channels
  184. Channel positions        : Front: L C R, Side: L R, LFE
  185. Sampling rate          : 48.0 kHz
  186. Frame rate           : 93.750 FPS (512 spf)
  187. Bit depth          : 24 bits
  188. Compression mode         : Lossy
  189. Stream size          : 536 MiB (2%)
  190. Title            : The.Boss.Baby.2017.1080p.BluRay.REMUX.AVC.DTS-HD.MA.7.1-FGT
  191. Language           : Norwegian
  192. Default            : No
  193. Forced           : No

  194. Audio #9
  195. ID             : 10
  196. Format           : AC-3
  197. Format/Info          : Audio Coding 3
  198. Format settings, Endianness    : Big
  199. Codec ID           : A_AC3
  200. Duration           : 1 h 37 min
  201. Bit rate mode          : Constant
  202. Bit rate           : 448 kb/s
  203. Channel(s)           : 6 channels
  204. Channel positions        : Front: L C R, Side: L R, LFE
  205. Sampling rate          : 48.0 kHz
  206. Frame rate           : 31.250 FPS (1536 spf)
  207. Bit depth          : 16 bits
  208. Compression mode         : Lossy
  209. Stream size          : 312 MiB (1%)
  210. Title            : The.Boss.Baby.2017.1080p.BluRay.REMUX.AVC.DTS-HD.MA.7.1-FGT
  211. Language           : Portuguese
  212. Service kind         : Complete Main
  213. Default            : No
  214. Forced           : No

  215. Audio #10
  216. ID             : 11
  217. Format           : DTS
  218. Format/Info          : Digital Theater Systems
  219. Mode             : 16
  220. Format settings, Endianness    : Big
  221. Codec ID           : A_DTS
  222. Duration           : 1 h 37 min
  223. Bit rate mode          : Constant
  224. Bit rate           : 768 kb/s
  225. Channel(s)           : 6 channels
  226. Channel positions        : Front: L C R, Side: L R, LFE
  227. Sampling rate          : 48.0 kHz
  228. Frame rate           : 93.750 FPS (512 spf)
  229. Bit depth          : 24 bits
  230. Compression mode         : Lossy
  231. Stream size          : 536 MiB (2%)
  232. Title            : The.Boss.Baby.2017.1080p.BluRay.REMUX.AVC.DTS-HD.MA.7.1-FGT
  233. Language           : Swedish
  234. Default            : No
  235. Forced           : No

  236. Text #1
  237. ID             : 12
  238. Format           : PGS
  239. Muxing mode          : zlib
  240. Codec ID           : S_HDMV/PGS
  241. Codec ID/Info          : Picture based subtitle format used on BDs/HD-DVDs
  242. Title            : English-PGS
  243. Language           : English
  244. Default            : Yes
  245. Forced           : No

  246. Text #2
  247. ID             : 13
  248. Format           : PGS
  249. Muxing mode          : zlib
  250. Codec ID           : S_HDMV/PGS
  251. Codec ID/Info          : Picture based subtitle format used on BDs/HD-DVDs
  252. Title            : English-FORCED-PGS
  253. Language           : English
  254. Default            : No
  255. Forced           : No

  256. Text #3
  257. ID             : 14
  258. Format           : PGS
  259. Muxing mode          : zlib
  260. Codec ID           : S_HDMV/PGS
  261. Codec ID/Info          : Picture based subtitle format used on BDs/HD-DVDs
  262. Title            : Spanish-PGS
  263. Language           : Spanish
  264. Default            : No
  265. Forced           : No

  266. Text #4
  267. ID             : 15
  268. Format           : PGS
  269. Muxing mode          : zlib
  270. Codec ID           : S_HDMV/PGS
  271. Codec ID/Info          : Picture based subtitle format used on BDs/HD-DVDs
  272. Title            : Spanish-FORCED-PGS
  273. Language           : Spanish
  274. Default            : No
  275. Forced           : No

  276. Text #5
  277. ID             : 16
  278. Format           : PGS
  279. Muxing mode          : zlib
  280. Codec ID           : S_HDMV/PGS
  281. Codec ID/Info          : Picture based subtitle format used on BDs/HD-DVDs
  282. Title            : French-PGS
  283. Language           : French
  284. Default            : No
  285. Forced           : No

  286. Text #6
  287. ID             : 17
  288. Format           : PGS
  289. Muxing mode          : zlib
  290. Codec ID           : S_HDMV/PGS
  291. Codec ID/Info          : Picture based subtitle format used on BDs/HD-DVDs
  292. Title            : French-FORCED-PGS
  293. Language           : French
  294. Default            : No
  295. Forced           : No

  296. Text #7
  297. ID             : 18
  298. Format           : PGS
  299. Muxing mode          : zlib
  300. Codec ID           : S_HDMV/PGS
  301. Codec ID/Info          : Picture based subtitle format used on BDs/HD-DVDs
  302. Title            : Danish-PGS
  303. Language           : Danish
  304. Default            : No
  305. Forced           : No

  306. Text #8
  307. ID             : 19
  308. Format           : PGS
  309. Muxing mode          : zlib
  310. Codec ID           : S_HDMV/PGS
  311. Codec ID/Info          : Picture based subtitle format used on BDs/HD-DVDs
  312. Title            : Danish-FORCED-PGS
  313. Language           : Danish
  314. Default            : No
  315. Forced           : No

  316. Text #9
  317. ID             : 20
  318. Format           : PGS
  319. Muxing mode          : zlib
  320. Codec ID           : S_HDMV/PGS
  321. Codec ID/Info          : Picture based subtitle format used on BDs/HD-DVDs
  322. Title            : Finnish-PGS
  323. Language           : Finnish
  324. Default            : No
  325. Forced           : No

  326. Text #10
  327. ID             : 21
  328. Format           : PGS
  329. Muxing mode          : zlib
  330. Codec ID           : S_HDMV/PGS
  331. Codec ID/Info          : Picture based subtitle format used on BDs/HD-DVDs
  332. Title            : Finnish-FORCED-PGS
  333. Language           : Finnish
  334. Default            : No
  335. Forced           : No

  336. Text #11
  337. ID             : 22
  338. Format           : PGS
  339. Muxing mode          : zlib
  340. Codec ID           : S_HDMV/PGS
  341. Codec ID/Info          : Picture based subtitle format used on BDs/HD-DVDs
  342. Title            : Norwegian-PGS
  343. Language           : Norwegian
  344. Default            : No
  345. Forced           : No

  346. Text #12
  347. ID             : 23
  348. Format           : PGS
  349. Muxing mode          : zlib
  350. Codec ID           : S_HDMV/PGS
  351. Codec ID/Info          : Picture based subtitle format used on BDs/HD-DVDs
  352. Title            : Norwegian-FORCED-PGS
  353. Language           : Norwegian
  354. Default            : No
  355. Forced           : No

  356. Text #13
  357. ID             : 24
  358. Format           : PGS
  359. Muxing mode          : zlib
  360. Codec ID           : S_HDMV/PGS
  361. Codec ID/Info          : Picture based subtitle format used on BDs/HD-DVDs
  362. Title            : Portuguese-PGS
  363. Language           : Portuguese
  364. Default            : No
  365. Forced           : No

  366. Text #14
  367. ID             : 25
  368. Format           : PGS
  369. Muxing mode          : zlib
  370. Codec ID           : S_HDMV/PGS
  371. Codec ID/Info          : Picture based subtitle format used on BDs/HD-DVDs
  372. Title            : Portuguese-FORCED-PGS
  373. Language           : Portuguese
  374. Default            : No
  375. Forced           : No

  376. Text #15
  377. ID             : 26
  378. Format           : PGS
  379. Muxing mode          : zlib
  380. Codec ID           : S_HDMV/PGS
  381. Codec ID/Info          : Picture based subtitle format used on BDs/HD-DVDs
  382. Title            : Swedish-PGS
  383. Language           : Swedish
  384. Default            : No
  385. Forced           : No

  386. Text #16
  387. ID             : 27
  388. Format           : PGS
  389. Muxing mode          : zlib
  390. Codec ID           : S_HDMV/PGS
  391. Codec ID/Info          : Picture based subtitle format used on BDs/HD-DVDs
  392. Title            : Swedish-FORCED-PGS
  393. Language           : Swedish
  394. Default            : No
  395. Forced           : No

  396. Menu
  397. 00:00:00.000         : en:Chapter 01
  398. 00:03:45.892         : en:Chapter 02
  399. 00:08:58.287         : en:Chapter 03
  400. 00:11:45.913         : en:Chapter 04
  401. 00:14:59.565         : en:Chapter 05
  402. 00:19:38.218         : en:Chapter 06
  403. 00:22:52.788         : en:Chapter 07
  404. 00:28:27.247         : en:Chapter 08
  405. 00:30:26.115         : en:Chapter 09
  406. 00:33:45.481         : en:Chapter 10
  407. 00:36:57.256         : en:Chapter 11
  408. 00:39:18.356         : en:Chapter 12
  409. 00:42:35.344         : en:Chapter 13
  410. 00:46:21.028         : en:Chapter 14
  411. 00:51:37.719         : en:Chapter 15
  412. 00:53:25.285         : en:Chapter 16
  413. 00:56:28.718         : en:Chapter 17
  414. 00:59:35.405         : en:Chapter 18
  415. 01:04:03.172         : en:Chapter 19
  416. 01:08:15.466         : en:Chapter 20
  417. 01:11:29.910         : en:Chapter 21
  418. 01:16:25.247         : en:Chapter 22
  419. 01:23:10.110         : en:Chapter 23
  420. 01:27:36.668         : en:Chapter 24



复制代码
复制代码
103321mv0vyleg6cnnekzl.jpg 103321q1ooz3q3ispzor53.jpg 103321km8q9im992pz2l1q.jpg 103321k00xb4td3yz4symz.jpg 103321pe3qb188dty88bxl.jpg 103321sjqdij3oiz65ljtn.jpg





回复

使用道具 举报

懒得打字嘛,点击右侧快捷回复 【右侧内容,后台自定义】
您需要登录后才可以回帖 登录 | 立即加入

本版积分规则

Archiver| |网站地图

Copyright © 2024 Comsenz Inc. Powered by 蓝光电影网

本站内容由用户自主分享和转载自互联网,转载目的在于传递更多信息,并不代表本网赞同其观点和对其真实性负责。

如有侵权、违反国家法律政策行为,请联系我们,我们会第一时间及时清除和处理!

举报反馈邮箱:4k1080.com@gmail.com

快速回复 返回顶部 返回列表