找回密码

查看: 2858|回复: 0

[剧情] 校园蓝调/主力难当 Varsity.Blues.1999.1080p.BluRay.REMUX.AVC.TrueHD.5.1-FGT 31.97GB

[复制链接]
蓝光币
1992
发表于 2017-12-20 23:59:59 | 显示全部楼层 |阅读模式
103352j1lbgyjyw2ddsw9g.jpg
◎译  名 校园蓝调 / 主力难当 / 情天雨天足球天
◎片  名 校园蓝调 Varsity Blues
◎年  代 1999
◎国  家 美国
◎类  别 剧情 / 笑剧 / 恋爱 / 活动
◎语  言 英语
◎上映日期 1999-10-16
◎IMDb评分6.4/10 from 36,704 users
◎IMDb链接http://www.imdb.com/title/tt0139699/
◎豆瓣评分 6.8/10 from 801 users
◎豆瓣链接 https://movie.douban.com/subject/1293259/
◎片  长 106 分钟 / Germany: 100 分钟
◎导  演 布莱恩·罗宾斯
◎主  演 罗恩·莱斯特 Ron Lester
      Paul Walker
      斯科特·凯恩 Scott Caan
      强·沃特 Jon Voight

◎简  介 

  橄榄球对于迦南镇的居民们来说实在是太重要了,身为他们挚爱的高中小狼队的教练,吉尔默(强·沃特 Jon Voight 饰)具有着至高无尚的讲话权,由于在他的率领和执教下,小狼队已经两次在乡镇夺得了金杯。
  马克思(詹姆斯·范德比克 James Van Der Beek 饰)和兰斯(保罗·沃克 Paul Walker 饰)是无话不谈的好友,与此同时,兰斯亦是小狼队中的强力先锋。但是,在一场非常重要的角逐到临之际,兰斯却因受伤而退出了球队,取而代之的,居然是半吊子的马克斯。让大师都没有想到的是,马克思居然干得不错,一会儿,他从冷静无闻的小卒成为了小镇豪杰。可是,成功带来了光荣,却也带来了麻烦。



  1. Video
  2. ID             : 1
  3. Format           : AVC
  4. Format/Info          : Advanced Video Codec
  5. Format profile         : [email]High@L4.1[/email]
  6. Format settings, CABAC       : Yes
  7. Format settings, ReFrames      : 4 frames
  8. Codec ID           : V_MPEG4/ISO/AVC
  9. Duration           : 1 h 44 min
  10. Bit rate mode          : Variable
  11. Maximum bit rate         : 39.0 Mb/s
  12. Width            : 1 920 pixels
  13. Height           : 1 080 pixels
  14. Display aspect ratio       : 16:9
  15. Frame rate mode        : Constant
  16. Frame rate           : 23.976 (24000/1001) FPS
  17. Color space          : YUV
  18. Chroma subsampling       : 4:2:0
  19. Bit depth          : 8 bits
  20. Scan type          : Progressive
  21. Title            : Varsity.Blues.1999.1080p.BluRay.REMUX.AVC.TrueHD.5.1-FGT
  22. Language           : English
  23. Default            : No
  24. Forced           : No
  25. Color range          : Limited
  26. Color primaries        : BT.709
  27. Transfer characteristics     : BT.709
  28. Matrix coefficients        : BT.709

  29. Audio #1
  30. ID             : 2
  31. Format           : TrueHD
  32. Codec ID           : A_TRUEHD
  33. Duration           : 1 h 44 min
  34. Bit rate mode          : Variable
  35. Maximum bit rate         : 5 247 kb/s
  36. Channel(s)           : 6 channels
  37. Channel positions        : Front: L C R, Side: L R, LFE
  38. Sampling rate          : 48.0 kHz
  39. Frame rate           : 1 200.000 FPS (40 spf)
  40. Compression mode         : Lossless
  41. Title            : Varsity.Blues.1999.1080p.BluRay.REMUX.AVC.TrueHD.5.1-FGT
  42. Language           : English
  43. Default            : Yes
  44. Forced           : No

  45. Audio #2
  46. ID             : 3
  47. Format           : AC-3
  48. Format/Info          : Audio Coding 3
  49. Format settings, Endianness    : Big
  50. Codec ID           : A_AC3
  51. Duration           : 1 h 44 min
  52. Bit rate mode          : Constant
  53. Bit rate           : 640 kb/s
  54. Channel(s)           : 6 channels
  55. Channel positions        : Front: L C R, Side: L R, LFE
  56. Sampling rate          : 48.0 kHz
  57. Frame rate           : 31.250 FPS (1536 spf)
  58. Bit depth          : 16 bits
  59. Compression mode         : Lossy
  60. Stream size          : 479 MiB (1%)
  61. Title            : Varsity.Blues.1999.1080p.BluRay.REMUX.AVC.TrueHD.5.1-FGT
  62. Language           : English
  63. Service kind         : Complete Main
  64. Default            : No
  65. Forced           : No

  66. Audio #3
  67. ID             : 4
  68. Format           : AC-3
  69. Format/Info          : Audio Coding 3
  70. Format settings, Endianness    : Big
  71. Codec ID           : A_AC3
  72. Duration           : 1 h 44 min
  73. Bit rate mode          : Constant
  74. Bit rate           : 640 kb/s
  75. Channel(s)           : 6 channels
  76. Channel positions        : Front: L C R, Side: L R, LFE
  77. Sampling rate          : 48.0 kHz
  78. Frame rate           : 31.250 FPS (1536 spf)
  79. Bit depth          : 16 bits
  80. Compression mode         : Lossy
  81. Stream size          : 479 MiB (1%)
  82. Title            : Varsity.Blues.1999.1080p.BluRay.REMUX.AVC.TrueHD.5.1-FGT
  83. Language           : French
  84. Service kind         : Complete Main
  85. Default            : No
  86. Forced           : No

  87. Audio #4
  88. ID             : 5
  89. Format           : AC-3
  90. Format/Info          : Audio Coding 3
  91. Format settings, Endianness    : Big
  92. Codec ID           : A_AC3
  93. Duration           : 1 h 44 min
  94. Bit rate mode          : Constant
  95. Bit rate           : 640 kb/s
  96. Channel(s)           : 6 channels
  97. Channel positions        : Front: L C R, Side: L R, LFE
  98. Sampling rate          : 48.0 kHz
  99. Frame rate           : 31.250 FPS (1536 spf)
  100. Bit depth          : 16 bits
  101. Compression mode         : Lossy
  102. Stream size          : 479 MiB (1%)
  103. Title            : Varsity.Blues.1999.1080p.BluRay.REMUX.AVC.TrueHD.5.1-FGT
  104. Language           : Spanish
  105. Service kind         : Complete Main
  106. Default            : No
  107. Forced           : No

  108. Audio #5
  109. ID             : 6
  110. Format           : AC-3
  111. Format/Info          : Audio Coding 3
  112. Mode             : Dolby Digital
  113. Format settings, Endianness    : Big
  114. Codec ID           : A_AC3
  115. Duration           : 1 h 44 min
  116. Bit rate mode          : Constant
  117. Bit rate           : 224 kb/s
  118. Channel(s)           : 2 channels
  119. Channel positions        : Front: L R
  120. Sampling rate          : 48.0 kHz
  121. Frame rate           : 31.250 FPS (1536 spf)
  122. Bit depth          : 16 bits
  123. Compression mode         : Lossy
  124. Stream size          : 168 MiB (1%)
  125. Title            : Varsity.Blues.1999.1080p.BluRay.REMUX.AVC.TrueHD.5.1-FGT
  126. Language           : English
  127. Service kind         : Complete Main
  128. Default            : No
  129. Forced           : No

  130. Text #1
  131. ID             : 7
  132. Format           : PGS
  133. Muxing mode          : zlib
  134. Codec ID           : S_HDMV/PGS
  135. Codec ID/Info          : Picture based subtitle format used on BDs/HD-DVDs
  136. Title            : English-PGS
  137. Language           : English
  138. Default            : Yes
  139. Forced           : No

  140. Text #2
  141. ID             : 8
  142. Format           : PGS
  143. Muxing mode          : zlib
  144. Codec ID           : S_HDMV/PGS
  145. Codec ID/Info          : Picture based subtitle format used on BDs/HD-DVDs
  146. Title            : English-SDH-PGS
  147. Language           : English
  148. Default            : No
  149. Forced           : No

  150. Text #3
  151. ID             : 9
  152. Format           : PGS
  153. Muxing mode          : zlib
  154. Codec ID           : S_HDMV/PGS
  155. Codec ID/Info          : Picture based subtitle format used on BDs/HD-DVDs
  156. Title            : French-PGS
  157. Language           : French
  158. Default            : No
  159. Forced           : No

  160. Text #4
  161. ID             : 10
  162. Format           : PGS
  163. Muxing mode          : zlib
  164. Codec ID           : S_HDMV/PGS
  165. Codec ID/Info          : Picture based subtitle format used on BDs/HD-DVDs
  166. Title            : Spanish-PGS
  167. Language           : Spanish
  168. Default            : No
  169. Forced           : No

  170. Text #5
  171. ID             : 11
  172. Format           : PGS
  173. Muxing mode          : zlib
  174. Codec ID           : S_HDMV/PGS
  175. Codec ID/Info          : Picture based subtitle format used on BDs/HD-DVDs
  176. Title            : Portuguese-PGS
  177. Language           : Portuguese
  178. Default            : No
  179. Forced           : No

  180. Menu
  181. 00:00:00.000         : en:Chapter 01
  182. 00:06:42.944         : en:Chapter 02
  183. 00:09:15.221         : en:Chapter 03
  184. 00:15:01.442         : en:Chapter 04
  185. 00:18:53.257         : en:Chapter 05
  186. 00:24:12.993         : en:Chapter 06
  187. 00:27:03.622         : en:Chapter 07
  188. 00:31:03.403         : en:Chapter 08
  189. 00:34:13.509         : en:Chapter 09
  190. 00:37:52.979         : en:Chapter 10
  191. 00:43:43.537         : en:Chapter 11
  192. 00:47:00.943         : en:Chapter 12
  193. 00:49:19.790         : en:Chapter 13
  194. 00:59:35.697         : en:Chapter 14
  195. 01:03:57.750         : en:Chapter 15
  196. 01:09:06.183         : en:Chapter 16
  197. 01:13:25.818         : en:Chapter 17
  198. 01:18:55.689         : en:Chapter 18
  199. 01:26:02.198         : en:Chapter 19
  200. 01:39:32.883         : en:Chapter 20



复制代码
复制代码
103352j0zzyzewzgeede24.jpg 103352sictea5ziu5ej974.jpg 103352o5622zc61p5g9hh9.jpg 103352ov06n09168mmcv10.jpg 103352j3ackec26kpe3nkk.jpg 103352ypqesyz303w4j4qq.jpg

                                




回复

使用道具 举报

懒得打字嘛,点击右侧快捷回复 【右侧内容,后台自定义】
您需要登录后才可以回帖 登录 | 立即加入

本版积分规则

Archiver| |网站地图

Copyright © 2024 Comsenz Inc. Powered by 蓝光电影网

本站内容由用户自主分享和转载自互联网,转载目的在于传递更多信息,并不代表本网赞同其观点和对其真实性负责。

如有侵权、违反国家法律政策行为,请联系我们,我们会第一时间及时清除和处理!

举报反馈邮箱:4k1080.com@gmail.com

快速回复 返回顶部 返回列表