找回密码

查看: 2456|回复: 1

[喜剧] 系统震撼 A.Shock.To.The.System.1990.1080p.BluRay.REMUX.AVC.DTS-HD.MA.5.1-FGT 20.58GB

[复制链接]
蓝光币
1982
发表于 2017-12-21 00:04:49 | 显示全部楼层 |阅读模式
103736xlqy9x095gegm9xd.jpg
◎译  名 系统震动
◎片  名 系统震动 A Shock to the System
◎年  代 1990
◎国  家 美国
◎类  别 笑剧 / 惊悚 / 犯罪
◎语  言 英语
◎上映日期 1990-03-23
◎IMDb评分6.7/10 from 3,251 users
◎IMDb链接http://www.imdb.com/title/tt0100602/
◎豆瓣评分 今朝无人评价
◎豆瓣链接 https://movie.douban.com/subject/1305207/
◎片  长 91 分钟 / UK: 85 分钟 / Canada: 89 分钟(Ontario)
◎导  演 Jan Egleson
◎主  演 Michael Caine

◎简  介 

  马歇尔已经庆贺了他焦虑期待的广告公司提升机遇,不外当他听说他的一个部属将会取代他提升后,他为他憎恨的人生不在会有改变而意气消沉。他起头操纵奸滑的计谋血腥报复羞辱他的人——而第一个就是神经质的妻子。



  1. Video
  2. ID             : 1
  3. Format           : AVC
  4. Format/Info          : Advanced Video Codec
  5. Format profile         : [email]High@L4.1[/email]
  6. Format settings, CABAC       : Yes
  7. Format settings, ReFrames      : 4 frames
  8. Codec ID           : V_MPEG4/ISO/AVC
  9. Duration           : 1 h 27 min
  10. Bit rate mode          : Variable
  11. Maximum bit rate         : 32.0 Mb/s
  12. Width            : 1 920 pixels
  13. Height           : 1 080 pixels
  14. Display aspect ratio       : 16:9
  15. Frame rate mode        : Constant
  16. Frame rate           : 23.976 (24000/1001) FPS
  17. Color space          : YUV
  18. Chroma subsampling       : 4:2:0
  19. Bit depth          : 8 bits
  20. Scan type          : Progressive
  21. Title            : A.Shock.To.The.System.1990.1080p.BluRay.REMUX.AVC.DTS-HD.MA.5.1-FGT
  22. Language           : English
  23. Default            : No
  24. Forced           : No

  25. Audio #1
  26. ID             : 2
  27. Format           : DTS
  28. Format/Info          : Digital Theater Systems
  29. Format profile         : MA / Core
  30. Mode             : 16
  31. Format settings, Endianness    : Big
  32. Codec ID           : A_DTS
  33. Duration           : 1 h 27 min
  34. Bit rate mode          : Variable / Constant
  35. Bit rate           : Unknown / 1 509 kb/s
  36. Channel(s)           : 6 channels
  37. Channel positions        : Front: L C R, Side: L R, LFE
  38. Sampling rate          : 48.0 kHz
  39. Frame rate           : 93.750 FPS (512 spf)
  40. Bit depth          : 24 bits
  41. Compression mode         : Lossless / Lossy
  42. Title            : A.Shock.To.The.System.1990.1080p.BluRay.REMUX.AVC.DTS-HD.MA.5.1-FGT
  43. Language           : English
  44. Default            : Yes
  45. Forced           : No

  46. Audio #2
  47. ID             : 3
  48. Format           : DTS
  49. Format/Info          : Digital Theater Systems
  50. Mode             : 16
  51. Format settings, Endianness    : Big
  52. Codec ID           : A_DTS
  53. Duration           : 1 h 27 min
  54. Bit rate mode          : Constant
  55. Bit rate           : 1 509 kb/s
  56. Channel(s)           : 6 channels
  57. Channel positions        : Front: L C R, Side: L R, LFE
  58. Sampling rate          : 48.0 kHz
  59. Frame rate           : 93.750 FPS (512 spf)
  60. Bit depth          : 24 bits
  61. Compression mode         : Lossy
  62. Stream size          : 949 MiB (5%)
  63. Title            : A.Shock.To.The.System.1990.1080p.BluRay.REMUX.AVC.DTS-HD.MA.5.1-FGT
  64. Language           : English
  65. Default            : No
  66. Forced           : No

  67. Audio #3
  68. ID             : 4
  69. Format           : DTS
  70. Format/Info          : Digital Theater Systems
  71. Format profile         : MA / Core
  72. Mode             : 16
  73. Format settings, Endianness    : Big
  74. Codec ID           : A_DTS
  75. Duration           : 1 h 27 min
  76. Bit rate mode          : Variable / Constant
  77. Bit rate           : Unknown / 1 509 kb/s
  78. Channel(s)           : 2 channels
  79. Channel positions        : Front: L R
  80. Sampling rate          : 48.0 kHz
  81. Frame rate           : 93.750 FPS (512 spf)
  82. Bit depth          : 24 bits
  83. Compression mode         : Lossless / Lossy
  84. Title            : A.Shock.To.The.System.1990.1080p.BluRay.REMUX.AVC.DTS-HD.MA.5.1-FGT
  85. Language           : English
  86. Default            : No
  87. Forced           : No

  88. Audio #4
  89. ID             : 5
  90. Format           : DTS
  91. Format/Info          : Digital Theater Systems
  92. Mode             : 16
  93. Format settings, Endianness    : Big
  94. Codec ID           : A_DTS
  95. Duration           : 1 h 27 min
  96. Bit rate mode          : Constant
  97. Bit rate           : 1 509 kb/s
  98. Channel(s)           : 2 channels
  99. Channel positions        : Front: L R
  100. Sampling rate          : 48.0 kHz
  101. Frame rate           : 93.750 FPS (512 spf)
  102. Bit depth          : 24 bits
  103. Compression mode         : Lossy
  104. Stream size          : 949 MiB (5%)
  105. Title            : A.Shock.To.The.System.1990.1080p.BluRay.REMUX.AVC.DTS-HD.MA.5.1-FGT
  106. Language           : English
  107. Default            : No
  108. Forced           : No

  109. Audio #5
  110. ID             : 6
  111. Format           : AC-3
  112. Format/Info          : Audio Coding 3
  113. Format settings, Endianness    : Big
  114. Codec ID           : A_AC3
  115. Duration           : 1 h 27 min
  116. Bit rate mode          : Constant
  117. Bit rate           : 256 kb/s
  118. Channel(s)           : 2 channels
  119. Channel positions        : Front: L R
  120. Sampling rate          : 48.0 kHz
  121. Frame rate           : 31.250 FPS (1536 spf)
  122. Bit depth          : 16 bits
  123. Compression mode         : Lossy
  124. Stream size          : 161 MiB (1%)
  125. Title            : A.Shock.To.The.System.1990.1080p.BluRay.REMUX.AVC.DTS-HD.MA.5.1-FGT
  126. Language           : English
  127. Service kind         : Complete Main
  128. Default            : No
  129. Forced           : No

  130. Text
  131. ID             : 7
  132. Format           : PGS
  133. Muxing mode          : zlib
  134. Codec ID           : S_HDMV/PGS
  135. Codec ID/Info          : Picture based subtitle format used on BDs/HD-DVDs
  136. Title            : English-PGS
  137. Language           : English
  138. Default            : Yes
  139. Forced           : No

  140. Menu
  141. 00:00:00.000         : en:Chapter 01
  142. 00:06:48.157         : en:Chapter 02
  143. 00:14:26.532         : en:Chapter 03
  144. 00:19:34.381         : en:Chapter 04
  145. 00:27:04.623         : en:Chapter 05
  146. 00:34:24.896         : en:Chapter 06
  147. 00:42:30.881         : en:Chapter 07
  148. 00:49:18.205         : en:Chapter 08
  149. 00:57:19.644         : en:Chapter 09
  150. 01:05:14.160         : en:Chapter 10
  151. 01:15:20.098         : en:Chapter 11
  152. 01:24:51.002         : en:Chapter 12
  153. 01:27:54.185         : en:Chapter 13



复制代码
复制代码
103736k11rpdzrlr1z76qz.jpg 103736ypd5znno4ppt669d.jpg 103736nqwqtlzr3yy0wgqt.jpg 103736aw2j00jfhhtjshmj.jpg 103736gjopez5pf8fep1p5.jpg 103736ih2c24kcws2j2w2w.jpg





回复

使用道具 举报

懒得打字嘛,点击右侧快捷回复 【右侧内容,后台自定义】
您需要登录后才可以回帖 登录 | 立即加入

本版积分规则

Archiver| |网站地图

Copyright © 2024 Comsenz Inc. Powered by 蓝光电影网

本站内容由用户自主分享和转载自互联网,转载目的在于传递更多信息,并不代表本网赞同其观点和对其真实性负责。

如有侵权、违反国家法律政策行为,请联系我们,我们会第一时间及时清除和处理!

举报反馈邮箱:4k1080.com@gmail.com

快速回复 返回顶部 返回列表