找回密码

查看: 3134|回复: 4

[科幻] 攻壳机动队/攻壳机动队真人版 Ghost.in.the.Shell.2017.1080p.BluRay.REMUX.AVC.DTS-HD.MA.TrueHD.7.1.Atmos-FGT 29.27GB

[复制链接]
蓝光币
1992
发表于 2017-12-21 00:05:59 | 显示全部楼层 |阅读模式
103910msyktrsv9pvvkvre.jpg
◎译  名 攻壳灵活队 / 攻壳灵活队真人版
◎片  名 攻壳灵活队 Ghost in the Shell
◎年  代 2017
◎国  家 美国
◎类  别 行动 / 科幻 / 犯罪
◎语  言 英语 / 日语
◎上映日期 2017-04-07(中国大陆) / 2017-03-29(法国) / 2017-03-31(美国)
◎IMDb评分6.6/10 from 78,584 users
◎IMDb链接http://www.imdb.com/title/tt1219827/
◎豆瓣评分 6.5/10 from 81930 users
◎豆瓣链接 https://movie.douban.com/subject/25818101/
◎片  长 107分钟
◎导  演 鲁伯特·桑德斯
◎主  演 斯嘉丽·约翰逊 Scarlett Johansson
      皮鲁·埃斯贝克 Pilou Asb?k
      北野武 Takeshi Kitano
      朱丽叶·比诺什 Juliette Binoche
      迈克尔·皮特 Michael Pitt
      黄经汉 Chin Han
      丹妮西娅·萨马尔 Danusia Samal
      拉札勒斯·雷图勒 Lasarus Ratuere
      泉原豊 Yutaka Izumihara
      托万达·马尼莫 Tawanda Manyimo
      彼得·费迪南多 Peter Ferdinando
      安娜玛丽亚·玛琳卡 Anamaria Marinca
      丹尼尔·亨绍尔 Daniel Henshall
      安德鲁·斯特林 Andrew Stehlin
      桃井薰 Kaori Momoi
      查尔斯·欧比 Chris Obi
      福岛莉拉 Rila Fukushima
      约瑟夫·纳瓦胡 Joseph Naufahu
      迈克尔·维克特 Michael Wincott

◎简  介 

  近未来,人类的各类器官都可实现移植,一时候机械人、生化人、仿生人充溢人间,与人类真假莫辨。某座富贵都会的大厦内,汉卡公司高管正与非洲宾客洽商营业,忽然宴会酿成血腥大屠杀,暴走的机械人大开杀戒。隶属公安九课的米拉·基里安少佐(斯嘉丽·约翰逊 Scarlett Johansson 饰)率领巴特(皮鲁·埃斯贝克 Pilou Asb?k 饰)等手下赶往现场,停息局势。按照对暴走艺伎机械人的观察发现,被称作“久世”的奥秘之人策划了这一系列的行动,而且他的方针全数指向了把握着生化前沿尖端科技的汉卡公司及其研发职员。经过一番凶恶的周旋,少佐逐步逼近真相,同时也渐渐解开了发生在自己身上的惊天奥秘……
  本片按照士郎正宗的典范原作改编。



  1. Video
  2. ID             : 1
  3. Format           : AVC
  4. Format/Info          : Advanced Video Codec
  5. Format profile         : [email]High@L4.1[/email]
  6. Format settings, CABAC       : Yes
  7. Format settings, ReFrames      : 4 frames
  8. Codec ID           : V_MPEG4/ISO/AVC
  9. Duration           : 1 h 46 min
  10. Bit rate mode          : Variable
  11. Maximum bit rate         : 30.0 Mb/s
  12. Width            : 1 920 pixels
  13. Height           : 1 080 pixels
  14. Display aspect ratio       : 16:9
  15. Frame rate mode        : Constant
  16. Frame rate           : 23.976 (24000/1001) FPS
  17. Color space          : YUV
  18. Chroma subsampling       : 4:2:0
  19. Bit depth          : 8 bits
  20. Scan type          : Progressive
  21. Title            : Ghost.in.the.Shell.2017.1080p.BluRay.REMUX.AVC.DTS-HD.MA.TrueHD.7.1.Atmos-FGT
  22. Language           : English
  23. Default            : No
  24. Forced           : No

  25. Audio #1
  26. ID             : 2
  27. Format           : DTS
  28. Format/Info          : Digital Theater Systems
  29. Format profile         : MA / Core
  30. Mode             : 16
  31. Format settings, Endianness    : Big
  32. Codec ID           : A_DTS
  33. Duration           : 1 h 46 min
  34. Bit rate mode          : Variable / Constant
  35. Bit rate           : Unknown / 1 509 kb/s
  36. Channel(s)           : 8 channels / 6 channels
  37. Channel positions        : Front: L C R, Side: L R, Back: L R, LFE / Front: L C R, Side: L R, LFE
  38. Sampling rate          : 48.0 kHz
  39. Frame rate           : 93.750 FPS (512 spf)
  40. Bit depth          : 24 bits
  41. Compression mode         : Lossless / Lossy
  42. Title            : Ghost.in.the.Shell.2017.1080p.BluRay.REMUX.AVC.DTS-HD.MA.TrueHD.7.1.Atmos-FGT
  43. Language           : English
  44. Default            : Yes
  45. Forced           : No

  46. Audio #2
  47. ID             : 3
  48. Format           : TrueHD
  49. Format profile         : TrueHD+Atmos / TrueHD
  50. Codec ID           : A_TRUEHD
  51. Bit rate mode          : Variable
  52. Maximum bit rate         : 7 710 kb/s
  53. Channel(s)           : Object Based / 8 channels
  54. Channel positions        : Object Based / Front: L C R, Side: L R, Back: L R, LFE
  55. Sampling rate          :/ 48.0 kHz
  56. Frame rate           : 1 200.000 FPS (40 spf)
  57. Compression mode         : Lossless
  58. Title            : Ghost.in.the.Shell.2017.1080p.BluRay.REMUX.AVC.DTS-HD.MA.TrueHD.7.1.Atmos-FGT
  59. Language           : English
  60. Default            : No
  61. Forced           : No

  62. Audio #3
  63. ID             : 4
  64. Format           : AC-3
  65. Format/Info          : Audio Coding 3
  66. Format settings, Endianness    : Big
  67. Codec ID           : A_AC3
  68. Duration           : 1 h 46 min
  69. Bit rate mode          : Constant
  70. Bit rate           : 640 kb/s
  71. Channel(s)           : 6 channels
  72. Channel positions        : Front: L C R, Side: L R, LFE
  73. Sampling rate          : 48.0 kHz
  74. Frame rate           : 31.250 FPS (1536 spf)
  75. Bit depth          : 16 bits
  76. Compression mode         : Lossy
  77. Stream size          : 490 MiB (2%)
  78. Title            : Ghost.in.the.Shell.2017.1080p.BluRay.REMUX.AVC.DTS-HD.MA.TrueHD.7.1.Atmos-FGT
  79. Language           : English
  80. Service kind         : Complete Main
  81. Default            : No
  82. Forced           : No

  83. Audio #4
  84. ID             : 5
  85. Format           : AC-3
  86. Format/Info          : Audio Coding 3
  87. Format settings, Endianness    : Big
  88. Codec ID           : A_AC3
  89. Duration           : 1 h 46 min
  90. Bit rate mode          : Constant
  91. Bit rate           : 640 kb/s
  92. Channel(s)           : 6 channels
  93. Channel positions        : Front: L C R, Side: L R, LFE
  94. Sampling rate          : 48.0 kHz
  95. Frame rate           : 31.250 FPS (1536 spf)
  96. Bit depth          : 16 bits
  97. Compression mode         : Lossy
  98. Stream size          : 490 MiB (2%)
  99. Title            : Ghost.in.the.Shell.2017.1080p.BluRay.REMUX.AVC.DTS-HD.MA.TrueHD.7.1.Atmos-FGT
  100. Language           : French
  101. Service kind         : Complete Main
  102. Default            : No
  103. Forced           : No

  104. Audio #5
  105. ID             : 6
  106. Format           : AC-3
  107. Format/Info          : Audio Coding 3
  108. Format settings, Endianness    : Big
  109. Codec ID           : A_AC3
  110. Duration           : 1 h 46 min
  111. Bit rate mode          : Constant
  112. Bit rate           : 640 kb/s
  113. Channel(s)           : 6 channels
  114. Channel positions        : Front: L C R, Side: L R, LFE
  115. Sampling rate          : 48.0 kHz
  116. Frame rate           : 31.250 FPS (1536 spf)
  117. Bit depth          : 16 bits
  118. Compression mode         : Lossy
  119. Stream size          : 490 MiB (2%)
  120. Title            : Ghost.in.the.Shell.2017.1080p.BluRay.REMUX.AVC.DTS-HD.MA.TrueHD.7.1.Atmos-FGT
  121. Language           : Spanish
  122. Service kind         : Complete Main
  123. Default            : No
  124. Forced           : No

  125. Audio #6
  126. ID             : 7
  127. Format           : AC-3
  128. Format/Info          : Audio Coding 3
  129. Format settings, Endianness    : Big
  130. Codec ID           : A_AC3
  131. Duration           : 1 h 46 min
  132. Bit rate mode          : Constant
  133. Bit rate           : 640 kb/s
  134. Channel(s)           : 6 channels
  135. Channel positions        : Front: L C R, Side: L R, LFE
  136. Sampling rate          : 48.0 kHz
  137. Frame rate           : 31.250 FPS (1536 spf)
  138. Bit depth          : 16 bits
  139. Compression mode         : Lossy
  140. Stream size          : 490 MiB (2%)
  141. Title            : Ghost.in.the.Shell.2017.1080p.BluRay.REMUX.AVC.DTS-HD.MA.TrueHD.7.1.Atmos-FGT
  142. Language           : Portuguese
  143. Service kind         : Complete Main
  144. Default            : No
  145. Forced           : No

  146. Audio #7
  147. ID             : 8
  148. Format           : AC-3
  149. Format/Info          : Audio Coding 3
  150. Format settings, Endianness    : Big
  151. Codec ID           : A_AC3
  152. Duration           : 1 h 46 min
  153. Bit rate mode          : Constant
  154. Bit rate           : 640 kb/s
  155. Channel(s)           : 6 channels
  156. Channel positions        : Front: L C R, Side: L R, LFE
  157. Sampling rate          : 48.0 kHz
  158. Frame rate           : 31.250 FPS (1536 spf)
  159. Bit depth          : 16 bits
  160. Compression mode         : Lossy
  161. Stream size          : 490 MiB (2%)
  162. Title            : Ghost.in.the.Shell.2017.1080p.BluRay.REMUX.AVC.DTS-HD.MA.TrueHD.7.1.Atmos-FGT
  163. Language           : English
  164. Service kind         : Complete Main
  165. Default            : No
  166. Forced           : No

  167. Text #1
  168. ID             : 9
  169. Format           : PGS
  170. Muxing mode          : zlib
  171. Codec ID           : S_HDMV/PGS
  172. Codec ID/Info          : Picture based subtitle format used on BDs/HD-DVDs
  173. Title            : English-PGS
  174. Language           : English
  175. Default            : Yes
  176. Forced           : No

  177. Text #2
  178. ID             : 10
  179. Format           : PGS
  180. Muxing mode          : zlib
  181. Codec ID           : S_HDMV/PGS
  182. Codec ID/Info          : Picture based subtitle format used on BDs/HD-DVDs
  183. Title            : English-SDH-PGS
  184. Language           : English
  185. Default            : No
  186. Forced           : No

  187. Text #3
  188. ID             : 11
  189. Format           : PGS
  190. Muxing mode          : zlib
  191. Codec ID           : S_HDMV/PGS
  192. Codec ID/Info          : Picture based subtitle format used on BDs/HD-DVDs
  193. Title            : French-PGS
  194. Language           : French
  195. Default            : No
  196. Forced           : No

  197. Text #4
  198. ID             : 12
  199. Format           : PGS
  200. Muxing mode          : zlib
  201. Codec ID           : S_HDMV/PGS
  202. Codec ID/Info          : Picture based subtitle format used on BDs/HD-DVDs
  203. Title            : French-FORCED-PGS
  204. Language           : French
  205. Default            : No
  206. Forced           : No

  207. Text #5
  208. ID             : 13
  209. Format           : PGS
  210. Muxing mode          : zlib
  211. Codec ID           : S_HDMV/PGS
  212. Codec ID/Info          : Picture based subtitle format used on BDs/HD-DVDs
  213. Title            : Spanish-PGS
  214. Language           : Spanish
  215. Default            : No
  216. Forced           : No

  217. Text #6
  218. ID             : 14
  219. Format           : PGS
  220. Muxing mode          : zlib
  221. Codec ID           : S_HDMV/PGS
  222. Codec ID/Info          : Picture based subtitle format used on BDs/HD-DVDs
  223. Title            : Spanish-FORCED-PGS
  224. Language           : Spanish
  225. Default            : No
  226. Forced           : No

  227. Text #7
  228. ID             : 15
  229. Format           : PGS
  230. Muxing mode          : zlib
  231. Codec ID           : S_HDMV/PGS
  232. Codec ID/Info          : Picture based subtitle format used on BDs/HD-DVDs
  233. Title            : Portuguese-PGS
  234. Language           : Portuguese
  235. Default            : No
  236. Forced           : No

  237. Text #8
  238. ID             : 16
  239. Format           : PGS
  240. Muxing mode          : zlib
  241. Codec ID           : S_HDMV/PGS
  242. Codec ID/Info          : Picture based subtitle format used on BDs/HD-DVDs
  243. Title            : Portuguese-FORCED-PGS
  244. Language           : Portuguese
  245. Default            : No
  246. Forced           : No

  247. Menu
  248. 00:00:00.000         : en:Chapter 01
  249. 00:08:09.155         : en:Chapter 02
  250. 00:14:39.962         : en:Chapter 03
  251. 00:21:26.493         : en:Chapter 04
  252. 00:28:02.681         : en:Chapter 05
  253. 00:34:13.217         : en:Chapter 06
  254. 00:39:27.615         : en:Chapter 07
  255. 00:43:57.801         : en:Chapter 08
  256. 00:51:49.815         : en:Chapter 09
  257. 00:55:19.149         : en:Chapter 10
  258. 01:01:06.871         : en:Chapter 11
  259. 01:07:49.815         : en:Chapter 12
  260. 01:14:36.972         : en:Chapter 13
  261. 01:20:31.743         : en:Chapter 14
  262. 01:27:46.177         : en:Chapter 15
  263. 01:33:41.407         : en:Chapter 16
  264. 01:37:59.832         : en:Chapter 17



复制代码
复制代码
103910v3z73at7c7ahzm5z.jpg 103910k4r41g1131o349h4.jpg 103910bpar0sis9dpd0auu.jpg 103910cxk3axy32ga1gmbs.jpg 103910jfz6pfr506krn66p.jpg 103910ltvngv71vavl7vtw.jpg

                                



回复

使用道具 举报

懒得打字嘛,点击右侧快捷回复 【右侧内容,后台自定义】
您需要登录后才可以回帖 登录 | 立即加入

本版积分规则

Archiver| |网站地图

Copyright © 2024 Comsenz Inc. Powered by 蓝光电影网

本站内容由用户自主分享和转载自互联网,转载目的在于传递更多信息,并不代表本网赞同其观点和对其真实性负责。

如有侵权、违反国家法律政策行为,请联系我们,我们会第一时间及时清除和处理!

举报反馈邮箱:4k1080.com@gmail.com

快速回复 返回顶部 返回列表