找回密码

查看: 2412|回复: 1

[剧情] 难以忘怀 Unforgettable.2017.1080p.BluRay.REMUX.AVC.DTS-HD.MA.5.1-FGT 28.19GB

[复制链接]
蓝光币
1974
发表于 2017-12-21 00:06:46 | 显示全部楼层 |阅读模式
104010jcrcq90q17n4q1h1.jpg
◎译  名 难以忘记 / To Have and to Hold
◎片  名 难以忘记 Unforgettable
◎年  代 2017
◎国  家 美国
◎类  别 剧情 / 惊悚
◎语  言 英语
◎上映日期 2017-04-21(美国)
◎IMDb评分4.7/10 from 2,375 users
◎IMDb链接http://www.imdb.com/title/tt3462710/
◎豆瓣评分 4.9/10 from 33 users
◎豆瓣链接 https://movie.douban.com/subject/26636548/
◎片  长 100分钟
◎导  演 丹尼斯·蒂诺威
◎主  演 罗莎里奥·道森 Rosario Dawson
      凯瑟琳·海格尔 Katherine Heigl
      吉欧夫·斯图兹 Geoff Stults
      切瑞·拉德 Cheryl Ladd
      惠特妮·卡明 Whitney Cummings
      罗伯特·维斯多姆 Robert Wisdom
      伊莎贝拉·瑞思 Isabella Rice
      西蒙·卡斯安德斯 Simon Kassianides
      杰森·布莱尔 Jayson Blair
      阿莱克斯·奎加诺 Alex Quijano
      玛丽莎·摩根 Marissa Morgan
      艾琳·伊拉斯玛 Aline Elasmar
      莱斯利·A·休斯 Leslie A. Hughes
      金凯德·沃克 Kincaid Walker
      劳伦·萝丝·刘易斯 Lauren Rose Lewis
      米奇·席尔帕 Mitch Silpa

◎简  介 

  翠莎(海格尔饰)的前夫和茱莉亚(道森饰演)胶漆相投,更可怕的是自己的女儿还和他们孤芳自赏。心生嫌隙的翠莎决决计回一切,一场女人之间的战争由此展开。



  1. Video
  2. ID             : 1
  3. Format           : AVC
  4. Format/Info          : Advanced Video Codec
  5. Format profile         : [email]High@L4.1[/email]
  6. Format settings, CABAC       : Yes
  7. Format settings, ReFrames      : 4 frames
  8. Format settings, GOP       : M=3, N=12
  9. Codec ID           : V_MPEG4/ISO/AVC
  10. Duration           : 1 h 40 min
  11. Bit rate mode          : Variable
  12. Maximum bit rate         : 37.0 Mb/s
  13. Width            : 1 920 pixels
  14. Height           : 1 080 pixels
  15. Display aspect ratio       : 16:9
  16. Frame rate mode        : Constant
  17. Frame rate           : 23.976 (24000/1001) FPS
  18. Color space          : YUV
  19. Chroma subsampling       : 4:2:0
  20. Bit depth          : 8 bits
  21. Scan type          : Progressive
  22. Title            : Unforgettable.2017.1080p.BluRay.REMUX.AVC.DTS-HD.MA.5.1-FGT
  23. Language           : English
  24. Default            : No
  25. Forced           : No

  26. Audio #1
  27. ID             : 2
  28. Format           : DTS
  29. Format/Info          : Digital Theater Systems
  30. Format profile         : MA / Core
  31. Mode             : 16
  32. Format settings, Endianness    : Big
  33. Codec ID           : A_DTS
  34. Duration           : 1 h 40 min
  35. Bit rate mode          : Variable / Constant
  36. Bit rate           : Unknown / 1 509 kb/s
  37. Channel(s)           : 6 channels
  38. Channel positions        : Front: L C R, Side: L R, LFE
  39. Sampling rate          : 48.0 kHz
  40. Frame rate           : 93.750 FPS (512 spf)
  41. Bit depth          : 24 bits
  42. Compression mode         : Lossless / Lossy
  43. Title            : Unforgettable.2017.1080p.BluRay.REMUX.AVC.DTS-HD.MA.5.1-FGT
  44. Language           : English
  45. Default            : Yes
  46. Forced           : No

  47. Audio #2
  48. ID             : 3
  49. Format           : DTS
  50. Format/Info          : Digital Theater Systems
  51. Mode             : 16
  52. Format settings, Endianness    : Big
  53. Codec ID           : A_DTS
  54. Duration           : 1 h 40 min
  55. Bit rate mode          : Constant
  56. Bit rate           : 1 509 kb/s
  57. Channel(s)           : 6 channels
  58. Channel positions        : Front: L C R, Side: L R, LFE
  59. Sampling rate          : 48.0 kHz
  60. Frame rate           : 93.750 FPS (512 spf)
  61. Bit depth          : 24 bits
  62. Compression mode         : Lossy
  63. Stream size          : 1.06GB (4%)
  64. Title            : Unforgettable.2017.1080p.BluRay.REMUX.AVC.DTS-HD.MA.5.1-FGT
  65. Language           : English
  66. Default            : No
  67. Forced           : No

  68. Audio #3
  69. ID             : 4
  70. Format           : AC-3
  71. Format/Info          : Audio Coding 3
  72. Format settings, Endianness    : Big
  73. Codec ID           : A_AC3
  74. Duration           : 1 h 40 min
  75. Bit rate mode          : Constant
  76. Bit rate           : 640 kb/s
  77. Channel(s)           : 6 channels
  78. Channel positions        : Front: L C R, Side: L R, LFE
  79. Sampling rate          : 48.0 kHz
  80. Frame rate           : 31.250 FPS (1536 spf)
  81. Bit depth          : 16 bits
  82. Compression mode         : Lossy
  83. Stream size          : 458 MiB (2%)
  84. Title            : Unforgettable.2017.1080p.BluRay.REMUX.AVC.DTS-HD.MA.5.1-FGT
  85. Language           : English
  86. Service kind         : Complete Main
  87. Default            : No
  88. Forced           : No

  89. Audio #4
  90. ID             : 5
  91. Format           : AC-3
  92. Format/Info          : Audio Coding 3
  93. Format settings, Endianness    : Big
  94. Codec ID           : A_AC3
  95. Duration           : 1 h 40 min
  96. Bit rate mode          : Constant
  97. Bit rate           : 640 kb/s
  98. Channel(s)           : 6 channels
  99. Channel positions        : Front: L C R, Side: L R, LFE
  100. Sampling rate          : 48.0 kHz
  101. Frame rate           : 31.250 FPS (1536 spf)
  102. Bit depth          : 16 bits
  103. Compression mode         : Lossy
  104. Stream size          : 458 MiB (2%)
  105. Title            : Unforgettable.2017.1080p.BluRay.REMUX.AVC.DTS-HD.MA.5.1-FGT
  106. Language           : French
  107. Service kind         : Complete Main
  108. Default            : No
  109. Forced           : No

  110. Audio #5
  111. ID             : 6
  112. Format           : AC-3
  113. Format/Info          : Audio Coding 3
  114. Format settings, Endianness    : Big
  115. Codec ID           : A_AC3
  116. Duration           : 1 h 40 min
  117. Bit rate mode          : Constant
  118. Bit rate           : 640 kb/s
  119. Channel(s)           : 6 channels
  120. Channel positions        : Front: L C R, Side: L R, LFE
  121. Sampling rate          : 48.0 kHz
  122. Frame rate           : 31.250 FPS (1536 spf)
  123. Bit depth          : 16 bits
  124. Compression mode         : Lossy
  125. Stream size          : 458 MiB (2%)
  126. Title            : Unforgettable.2017.1080p.BluRay.REMUX.AVC.DTS-HD.MA.5.1-FGT
  127. Language           : Spanish
  128. Service kind         : Complete Main
  129. Default            : No
  130. Forced           : No

  131. Audio #6
  132. ID             : 7
  133. Format           : AC-3
  134. Format/Info          : Audio Coding 3
  135. Format settings, Endianness    : Big
  136. Codec ID           : A_AC3
  137. Duration           : 1 h 40 min
  138. Bit rate mode          : Constant
  139. Bit rate           : 640 kb/s
  140. Channel(s)           : 6 channels
  141. Channel positions        : Front: L C R, Side: L R, LFE
  142. Sampling rate          : 48.0 kHz
  143. Frame rate           : 31.250 FPS (1536 spf)
  144. Bit depth          : 16 bits
  145. Compression mode         : Lossy
  146. Stream size          : 458 MiB (2%)
  147. Title            : Unforgettable.2017.1080p.BluRay.REMUX.AVC.DTS-HD.MA.5.1-FGT
  148. Language           : Portuguese
  149. Service kind         : Complete Main
  150. Default            : No
  151. Forced           : No

  152. Audio #7
  153. ID             : 8
  154. Format           : AC-3
  155. Format/Info          : Audio Coding 3
  156. Mode             : Dolby Digital
  157. Format settings, Endianness    : Big
  158. Codec ID           : A_AC3
  159. Duration           : 1 h 40 min
  160. Bit rate mode          : Constant
  161. Bit rate           : 192 kb/s
  162. Channel(s)           : 2 channels
  163. Channel positions        : Front: L R
  164. Sampling rate          : 48.0 kHz
  165. Frame rate           : 31.250 FPS (1536 spf)
  166. Bit depth          : 16 bits
  167. Compression mode         : Lossy
  168. Stream size          : 138 MiB (0%)
  169. Title            : Unforgettable.2017.1080p.BluRay.REMUX.AVC.DTS-HD.MA.5.1-FGT
  170. Language           : English
  171. Service kind         : Complete Main
  172. Default            : No
  173. Forced           : No

  174. Text #1
  175. ID             : 9
  176. Format           : PGS
  177. Muxing mode          : zlib
  178. Codec ID           : S_HDMV/PGS
  179. Codec ID/Info          : Picture based subtitle format used on BDs/HD-DVDs
  180. Title            : English-PGS
  181. Language           : English
  182. Default            : Yes
  183. Forced           : No

  184. Text #2
  185. ID             : 10
  186. Format           : PGS
  187. Muxing mode          : zlib
  188. Codec ID           : S_HDMV/PGS
  189. Codec ID/Info          : Picture based subtitle format used on BDs/HD-DVDs
  190. Title            : French-PGS
  191. Language           : French
  192. Default            : No
  193. Forced           : No

  194. Text #3
  195. ID             : 11
  196. Format           : PGS
  197. Muxing mode          : zlib
  198. Codec ID           : S_HDMV/PGS
  199. Codec ID/Info          : Picture based subtitle format used on BDs/HD-DVDs
  200. Title            : Spanish-PGS
  201. Language           : Spanish
  202. Default            : No
  203. Forced           : No

  204. Text #4
  205. ID             : 12
  206. Format           : PGS
  207. Muxing mode          : zlib
  208. Codec ID           : S_HDMV/PGS
  209. Codec ID/Info          : Picture based subtitle format used on BDs/HD-DVDs
  210. Title            : Portuguese-PGS
  211. Language           : Portuguese
  212. Default            : No
  213. Forced           : No

  214. Text #5
  215. ID             : 13
  216. Format           : PGS
  217. Muxing mode          : zlib
  218. Codec ID           : S_HDMV/PGS
  219. Codec ID/Info          : Picture based subtitle format used on BDs/HD-DVDs
  220. Title            : French-FORCED-PGS
  221. Language           : French
  222. Default            : No
  223. Forced           : No

  224. Text #6
  225. ID             : 14
  226. Format           : PGS
  227. Muxing mode          : zlib
  228. Codec ID           : S_HDMV/PGS
  229. Codec ID/Info          : Picture based subtitle format used on BDs/HD-DVDs
  230. Title            : Spanish-FORCED-PGS
  231. Language           : Spanish
  232. Default            : No
  233. Forced           : No

  234. Text #7
  235. ID             : 15
  236. Format           : PGS
  237. Muxing mode          : zlib
  238. Codec ID           : S_HDMV/PGS
  239. Codec ID/Info          : Picture based subtitle format used on BDs/HD-DVDs
  240. Title            : Portuguese-FORCED-PGS
  241. Language           : Portuguese
  242. Default            : No
  243. Forced           : No

  244. Menu
  245. 00:00:00.000         : en:Chapter 01
  246. 00:09:57.054         : en:Chapter 02
  247. 00:18:48.043         : en:Chapter 03
  248. 00:28:13.983         : en:Chapter 04
  249. 00:36:48.831         : en:Chapter 05
  250. 00:47:02.319         : en:Chapter 06
  251. 00:56:55.370         : en:Chapter 07
  252. 01:08:42.159         : en:Chapter 08
  253. 01:17:40.322         : en:Chapter 09
  254. 01:26:15.628         : en:Chapter 10
  255. 01:37:16.163         : en:Chapter 11



复制代码
复制代码
104010k44oitshvtozon24.jpg 104010ta8aa4ay4jqa4sdv.jpg 104010i0jzcoci0q05g0ri.jpg 104010eg7m0ug22z0jgci3.jpg 104010j8w84j5qgd8z8zrj.jpg 104010khxy2o4tziq5gfqt.jpg




回复

使用道具 举报

懒得打字嘛,点击右侧快捷回复 【右侧内容,后台自定义】
您需要登录后才可以回帖 登录 | 立即加入

本版积分规则

Archiver| |网站地图

Copyright © 2024 Comsenz Inc. Powered by 蓝光电影网

本站内容由用户自主分享和转载自互联网,转载目的在于传递更多信息,并不代表本网赞同其观点和对其真实性负责。

如有侵权、违反国家法律政策行为,请联系我们,我们会第一时间及时清除和处理!

举报反馈邮箱:4k1080.com@gmail.com

快速回复 返回顶部 返回列表