找回密码

查看: 2614|回复: 1

[惊悚] 无人机 Drone.2017.1080p.BluRay.REMUX.AVC.DTS-HD.MA.5.1-FGT 21.42GB

[复制链接]
蓝光币
1984
发表于 2017-12-21 00:07:57 | 显示全部楼层 |阅读模式
104611r1xt5huwtv98taua.jpg
◎译  名 无人机 / Incursion
◎片  名 无人机 Drone
◎年  代 2017
◎国  家 加拿大
◎类  别 惊悚
◎语  言 英语
◎上映日期 2017-04-17(温哥华限制上映) / 2017-05-26(美国)
◎IMDb评分5.3/10 from 1,789 users
◎IMDb链接http://www.imdb.com/title/tt5352846/
◎豆瓣评分 今朝无人评价
◎豆瓣链接 https://movie.douban.com/subject/26809063/
◎片  长 91分钟
◎导  演 杰森·伯格
◎主  演 肖恩·宾 Sean Bean
      Patrick Sanogui
      玛丽·麦克科马克 Mary McCormack
      乔·大卫·摩尔Joel David Moore

◎简  介 

  Bean plays a private drone contractor who spends his workdays flying covert missions then returns to a family life of suburban mediocrity — without his wife or son knowing about his secret life — until a whistle-blowing site exposes him to a deadly threat. Believing he is responsible for the deaths of his wife and child, an enigmatic Pakistani businessman (Sabongui) tracks him down, leading to a harrowing confrontation.



  1. Video
  2. ID             : 1
  3. Format           : AVC
  4. Format/Info          : Advanced Video Codec
  5. Format profile         : [email]High@L4.1[/email]
  6. Format settings, CABAC       : Yes
  7. Format settings, ReFrames      : 4 frames
  8. Codec ID           : V_MPEG4/ISO/AVC
  9. Duration           : 1 h 29 min
  10. Bit rate mode          : Variable
  11. Maximum bit rate         : 38.0 Mb/s
  12. Width            : 1 920 pixels
  13. Height           : 1 080 pixels
  14. Display aspect ratio       : 16:9
  15. Frame rate mode        : Constant
  16. Frame rate           : 23.976 (24000/1001) FPS
  17. Color space          : YUV
  18. Chroma subsampling       : 4:2:0
  19. Bit depth          : 8 bits
  20. Scan type          : Progressive
  21. Title            : Drone.2017.1080p.BluRay.REMUX.AVC.DTS-HD.MA.5.1-FGT
  22. Language           : English
  23. Default            : No
  24. Forced           : No

  25. Audio #1
  26. ID             : 2
  27. Format           : DTS
  28. Format/Info          : Digital Theater Systems
  29. Format profile         : MA / Core
  30. Mode             : 16
  31. Format settings, Endianness    : Big
  32. Codec ID           : A_DTS
  33. Duration           : 1 h 29 min
  34. Bit rate mode          : Variable / Constant
  35. Bit rate           : Unknown / 1 509 kb/s
  36. Channel(s)           : 6 channels
  37. Channel positions        : Front: L C R, Side: L R, LFE
  38. Sampling rate          : 48.0 kHz
  39. Frame rate           : 93.750 FPS (512 spf)
  40. Bit depth          : 16 bits
  41. Compression mode         : Lossless / Lossy
  42. Title            : Drone.2017.1080p.BluRay.REMUX.AVC.DTS-HD.MA.5.1-FGT
  43. Language           : English
  44. Default            : Yes
  45. Forced           : No

  46. Audio #2
  47. ID             : 3
  48. Format           : DTS
  49. Format/Info          : Digital Theater Systems
  50. Mode             : 16
  51. Format settings, Endianness    : Big
  52. Codec ID           : A_DTS
  53. Duration           : 1 h 29 min
  54. Bit rate mode          : Constant
  55. Bit rate           : 1 509 kb/s
  56. Channel(s)           : 6 channels
  57. Channel positions        : Front: L C R, Side: L R, LFE
  58. Sampling rate          : 48.0 kHz
  59. Frame rate           : 93.750 FPS (512 spf)
  60. Bit depth          : 16 bits
  61. Compression mode         : Lossy
  62. Stream size          : 967 MiB (4%)
  63. Title            : Drone.2017.1080p.BluRay.REMUX.AVC.DTS-HD.MA.5.1-FGT
  64. Language           : English
  65. Default            : No
  66. Forced           : No

  67. Audio #3
  68. ID             : 4
  69. Format           : DTS
  70. Format/Info          : Digital Theater Systems
  71. Format profile         : MA / Core
  72. Mode             : 16
  73. Format settings, Endianness    : Big
  74. Codec ID           : A_DTS
  75. Duration           : 1 h 29 min
  76. Bit rate mode          : Variable / Constant
  77. Bit rate           : Unknown / 768 kb/s
  78. Channel(s)           : 2 channels
  79. Channel positions        :/ Front: L R
  80. Sampling rate          : 48.0 kHz
  81. Frame rate           : 93.750 FPS (512 spf)
  82. Bit depth          : 16 bits
  83. Compression mode         : Lossless / Lossy
  84. Title            : Drone.2017.1080p.BluRay.REMUX.AVC.DTS-HD.MA.5.1-FGT
  85. Language           : English
  86. Default            : No
  87. Forced           : No

  88. Audio #4
  89. ID             : 5
  90. Format           : DTS
  91. Format/Info          : Digital Theater Systems
  92. Mode             : 16
  93. Format settings, Endianness    : Big
  94. Codec ID           : A_DTS
  95. Duration           : 1 h 29 min
  96. Bit rate mode          : Constant
  97. Bit rate           : 768 kb/s
  98. Channel(s)           : 2 channels
  99. Channel positions        : Front: L R
  100. Sampling rate          : 48.0 kHz
  101. Frame rate           : 93.750 FPS (512 spf)
  102. Bit depth          : 16 bits
  103. Compression mode         : Lossy
  104. Stream size          : 492 MiB (2%)
  105. Title            : Drone.2017.1080p.BluRay.REMUX.AVC.DTS-HD.MA.5.1-FGT
  106. Language           : English
  107. Default            : No
  108. Forced           : No

  109. Text
  110. ID             : 6
  111. Format           : PGS
  112. Muxing mode          : zlib
  113. Codec ID           : S_HDMV/PGS
  114. Codec ID/Info          : Picture based subtitle format used on BDs/HD-DVDs
  115. Title            : English-PGS
  116. Language           : English
  117. Default            : Yes
  118. Forced           : No

  119. Menu
  120. 00:00:00.000         : en:Chapter 01
  121. 00:03:55.944         : en:Chapter 02
  122. 00:10:40.306         : en:Chapter 03
  123. 00:19:25.873         : en:Chapter 04
  124. 00:23:25.320         : en:Chapter 05
  125. 00:33:03.940         : en:Chapter 06
  126. 00:40:15.121         : en:Chapter 07
  127. 00:50:32.863         : en:Chapter 08
  128. 00:59:38.199         : en:Chapter 09
  129. 01:10:28.390         : en:Chapter 10
  130. 01:19:30.223         : en:Chapter 11
  131. 01:26:26.181         : en:Chapter 12



复制代码
复制代码
104611wwtidy25kr05rf52.jpg 104611dgougqu1gl0x3eue.jpg 104611z8iw1fmii6p5f861.jpg 104611wg67ju55genj0zs3.jpg 104611btgdpjugw2cdlwd4.jpg 104611pffwq1f0itfiup0r.jpg





回复

使用道具 举报

懒得打字嘛,点击右侧快捷回复 【右侧内容,后台自定义】
您需要登录后才可以回帖 登录 | 立即加入

本版积分规则

Archiver| |网站地图

Copyright © 2024 Comsenz Inc. Powered by 蓝光电影网

本站内容由用户自主分享和转载自互联网,转载目的在于传递更多信息,并不代表本网赞同其观点和对其真实性负责。

如有侵权、违反国家法律政策行为,请联系我们,我们会第一时间及时清除和处理!

举报反馈邮箱:4k1080.com@gmail.com

快速回复 返回顶部 返回列表