找回密码

查看: 2436|回复: 0

[喜剧] 河马 The.Hippopotamus.2017.1080p.BluRay.REMUX.AVC.DTS-HD.MA.5.1-FGT 21.48GB

[复制链接]
蓝光币
1992
发表于 2017-12-21 00:12:14 | 显示全部楼层 |阅读模式
105203kf2u2zf5q2q7b5eb.jpg
◎译  名 河马
◎片  名 河马 The Hippopotamus
◎年  代 2017
◎国  家 英国
◎类  别 笑剧
◎语  言 英语
◎上映日期 2017-01-14(棕榈泉国际电影节) / 2017-05-28(英国)
◎IMDb评分6.6/10 from 286 users
◎IMDb链接http://www.imdb.com/title/tt3758708/
◎豆瓣评分 7.0/10 from 36 users
◎豆瓣链接 https://movie.douban.com/subject/25948014/
◎片  长 90分钟
◎导  演 John Jencks
◎主  演 马修·莫迪恩 Matthew Modine
      拉塞尔·托维 Russell Tovey
      罗杰·阿拉姆 Roger Allam
      阿德里安·布薛特 Adrian Bouchet
      蒂姆·麦克纳尼 Tim McInnerny
      费奥纳·肖 Fiona Shaw
      艾米丽·伯林顿 Emily Berrington
      杰拉丁·萨莫维尔 Geraldine Somerville
      琳·莱妮 Lyne Renee
      汤米·奈特 Tommy Knight
      约翰·斯坦丁 John Standing
      丹尼尔·厄根 Daniel Eghan
      Richard Glover
      本内迪克特·泰勒 Benedict Taylor
      塞巴斯蒂安·克罗夫特 Sebastian Croft

◎简  介 

  由约翰·詹克斯执导,据史蒂芬·弗莱的同名小说改编而成。奇迹失意的墨客泰德·华莱士被他的朋友洛根约请到其村落落园小住一段时候。由于比来在庄园里发生了一些希奇的工作,泰德起头观察工作发生的缘由。15岁的少年大卫·洛根,在洛根佳耦看来具有一双有治愈才能的双手。洛根佳耦预备在集会上向客人公然大卫的天赋,可是被泰德用一些奇异的方式证实那些希奇的工作实在是一个圈套,从而拯救了大卫以后的为难场面。



  1. Video
  2. ID             : 1
  3. Format           : AVC
  4. Format/Info          : Advanced Video Codec
  5. Format profile         : [email]High@L4.1[/email]
  6. Format settings, CABAC       : Yes
  7. Format settings, ReFrames      : 4 frames
  8. Codec ID           : V_MPEG4/ISO/AVC
  9. Duration           : 1 h 29 min
  10. Bit rate mode          : Constant
  11. Nominal bit rate         : 30.0 Mb/s
  12. Width            : 1 920 pixels
  13. Height           : 1 080 pixels
  14. Display aspect ratio       : 16:9
  15. Frame rate mode        : Constant
  16. Frame rate           : 24.000 FPS
  17. Standard           : NTSC
  18. Color space          : YUV
  19. Chroma subsampling       : 4:2:0
  20. Bit depth          : 8 bits
  21. Scan type          : Progressive
  22. Bits/(Pixel*Frame)       : 0.603
  23. Title            : The.Hippopotamus.2017.1080p.BluRay.REMUX.AVC.DTS-HD.MA.5.1-FGT
  24. Language           : English
  25. Default            : No
  26. Forced           : No
  27. Color range          : Limited
  28. Color primaries        : BT.709
  29. Transfer characteristics     : BT.709
  30. Matrix coefficients        : BT.709

  31. Audio #1
  32. ID             : 2
  33. Format           : DTS
  34. Format/Info          : Digital Theater Systems
  35. Format profile         : MA / Core
  36. Mode             : 16
  37. Format settings, Endianness    : Big
  38. Codec ID           : A_DTS
  39. Duration           : 1 h 29 min
  40. Bit rate mode          : Variable / Constant
  41. Bit rate           : Unknown / 1 509 kb/s
  42. Channel(s)           : 6 channels
  43. Channel positions        : Front: L C R, Side: L R, LFE
  44. Sampling rate          : 48.0 kHz
  45. Frame rate           : 93.750 FPS (512 spf)
  46. Bit depth          : 24 bits
  47. Compression mode         : Lossless / Lossy
  48. Title            : The.Hippopotamus.2017.1080p.BluRay.REMUX.AVC.DTS-HD.MA.5.1-FGT
  49. Language           : English
  50. Default            : Yes
  51. Forced           : No

  52. Audio #2
  53. ID             : 3
  54. Format           : AC-3
  55. Format/Info          : Audio Coding 3
  56. Format settings, Endianness    : Big
  57. Codec ID           : A_AC3
  58. Duration           : 1 h 29 min
  59. Bit rate mode          : Constant
  60. Bit rate           : 448 kb/s
  61. Channel(s)           : 6 channels
  62. Channel positions        : Front: L C R, Side: L R, LFE
  63. Sampling rate          : 48.0 kHz
  64. Frame rate           : 31.250 FPS (1536 spf)
  65. Bit depth          : 16 bits
  66. Compression mode         : Lossy
  67. Stream size          : 286 MiB (1%)
  68. Title            : The.Hippopotamus.2017.1080p.BluRay.REMUX.AVC.DTS-HD.MA.5.1-FGT
  69. Language           : English
  70. Service kind         : Complete Main
  71. Default            : No
  72. Forced           : No

  73. Audio #3
  74. ID             : 4
  75. Format           : DTS
  76. Format/Info          : Digital Theater Systems
  77. Mode             : 16
  78. Format settings, Endianness    : Big
  79. Codec ID           : A_DTS
  80. Duration           : 1 h 29 min
  81. Bit rate mode          : Constant
  82. Bit rate           : 1 509 kb/s
  83. Channel(s)           : 6 channels
  84. Channel positions        : Front: L C R, Side: L R, LFE
  85. Sampling rate          : 48.0 kHz
  86. Frame rate           : 93.750 FPS (512 spf)
  87. Bit depth          : 24 bits
  88. Compression mode         : Lossy
  89. Stream size          : 964 MiB (4%)
  90. Title            : The.Hippopotamus.2017.1080p.BluRay.REMUX.AVC.DTS-HD.MA.5.1-FGT
  91. Language           : English
  92. Default            : No
  93. Forced           : No

  94. Text
  95. ID             : 5
  96. Format           : PGS
  97. Muxing mode          : zlib
  98. Codec ID           : S_HDMV/PGS
  99. Codec ID/Info          : Picture based subtitle format used on BDs/HD-DVDs
  100. Title            : English-PGS
  101. Language           : English
  102. Default            : Yes
  103. Forced           : No

  104. Menu
  105. 00:00:00.000         : en:Chapter 01
  106. 00:02:21.958         : en:Chapter 02
  107. 00:08:27.333         : en:Chapter 03
  108. 00:14:42.666         : en:Chapter 04
  109. 00:18:29.166         : en:Chapter 05
  110. 00:25:19.916         : en:Chapter 06
  111. 00:33:56.291         : en:Chapter 07
  112. 00:39:09.291         : en:Chapter 08
  113. 00:44:04.166         : en:Chapter 09
  114. 00:50:00.083         : en:Chapter 10
  115. 00:55:28.125         : en:Chapter 11
  116. 00:59:55.375         : en:Chapter 12
  117. 01:04:11.541         : en:Chapter 13
  118. 01:10:57.791         : en:Chapter 14
  119. 01:17:04.750         : en:Chapter 15
  120. 01:22:31.041         : en:Chapter 16
  121. 01:25:43.416         : en:Chapter 17
  122. 01:29:18.916         : en:Chapter 18



复制代码
复制代码
105203b4yez1fyyye2pfcf.jpg 105203yzikkq9nq9k761qn.jpg 105203bdp40dk99ordcd8t.jpg 105203y2a953brzhhx1iqu.jpg 105203y9v70s13zeumj41j.jpg 105203gttbshw93xazemmb.jpg

                                



回复

使用道具 举报

懒得打字嘛,点击右侧快捷回复 【右侧内容,后台自定义】
您需要登录后才可以回帖 登录 | 立即加入

本版积分规则

Archiver| |网站地图

Copyright © 2024 Comsenz Inc. Powered by 蓝光电影网

本站内容由用户自主分享和转载自互联网,转载目的在于传递更多信息,并不代表本网赞同其观点和对其真实性负责。

如有侵权、违反国家法律政策行为,请联系我们,我们会第一时间及时清除和处理!

举报反馈邮箱:4k1080.com@gmail.com

快速回复 返回顶部 返回列表