找回密码

查看: 3688|回复: 3

[奇幻] 亚瑟王:斗兽争霸/亚瑟王:圣剑传奇 King.Arthur.Legend.of.the.Sword.2017.1080p.BluRay.REMUX.AVC.DTS-HD.MA.TrueHD.7.1.Atmos-FGT 29.63GB

[复制链接]
蓝光币
1974
发表于 2017-12-21 00:21:51 | 显示全部楼层 |阅读模式
105913wm8tq02njqssmjnr.jpg
◎译  名 亚瑟王:斗兽争霸 / 亚瑟王:圣剑传奇 / 亚瑟:王者之剑 / 神剑亚瑟王 / 亚瑟王:圆桌骑士 / 亚瑟王:剑之传奇 / 亚瑟王:石中剑传闻 / 新亚瑟王 / 圆桌骑士 / King Arthur
◎片  名 亚瑟王:斗兽争霸 King Arthur: Legend of the Sword
◎年  代 2017
◎国  家 美国
◎类  别 行动 / 奇异 / 冒险
◎语  言 英语
◎上映日期 2017-05-12(中国大陆/美国)
◎IMDb评分7.2/10 from 60,819 users
◎IMDb链接http://www.imdb.com/title/tt1972591/
◎豆瓣评分 7.3/10 from 24911 users
◎豆瓣链接 https://movie.douban.com/subject/25864124/
◎片  长 126分钟
◎导  演 盖·里奇
◎主  演 查理·汉纳姆 Charlie Hunnam
      裘德·洛 Jude Law
      阿斯特丽德·伯格斯-弗瑞斯贝 àstrid Bergès-Frisbey
      米卡埃尔·佩斯布兰特 Mikael Persbrandt
      杰曼·翰苏 Djimon Hounsou
      安娜贝拉·沃丽丝 Annabelle Wallis
      艾瑞克·巴纳 Eric Bana
      艾丹·吉伦 Aidan Gillen
      尼尔·马斯克尔 Neil Maskell
      赫敏·科菲尔德 Hermione Corfield
      凯蒂·麦克格雷斯 Katie McGrath
      杰奎·安斯蕾 Jacqui Ainsley
      弗莱迪·福克斯 Freddie Fox
      波比·迪瓦伊 Poppy Delevingne
      朱利安·西格尔 Julian Seager
      大卫·贝克汉姆 David Beckham
      杰夫·贝尔 Geoff Bell
      米莉·布拉迪 Millie Brady
      乔治娜·坎贝尔 Georgina Campbell
      丹尼尔·斯蒂森 Daniel Stisen
      伊琳·珀威尔 Eline Powell
      迈克尔·麦克埃尔哈顿 Michael McElhatton
      阿德里安·布薛特 Adrian Bouchet
      彼得·费迪南多 Peter Ferdinando
      汤姆·吴 Tom Wu
      金斯利·本-阿德 Kingsley Ben-Adir
      盖·里奇 Guy Ritchie

◎简  介 

  本片改编自亚瑟王圣剑的传闻,剧情倾覆传统,一路摸索亚瑟从市井到王座的征途。亚瑟的父亲在他小时辰就惨遭杀戮,亚瑟的叔叔伏提庚(裘德·洛 Jude Law 饰)篡取王位,褫夺了亚瑟(查理·汉纳姆 Charlie Hunnam 饰)的天赐之权。他浑然不知自己的身世,在城市的穷街陋巷里摸爬滚打着长大,但当他拔出石中剑,他的人生就完全地天翻地覆了,亚瑟不能不接管自己实在的使命。



  1. Video
  2. ID             : 1
  3. Format           : AVC
  4. Format/Info          : Advanced Video Codec
  5. Format profile         : [email]High@L4.1[/email]
  6. Format settings, CABAC       : Yes
  7. Format settings, ReFrames      : 4 frames
  8. Codec ID           : V_MPEG4/ISO/AVC
  9. Duration           : 2 h 6 min
  10. Bit rate mode          : Variable
  11. Maximum bit rate         : 28.0 Mb/s
  12. Width            : 1 920 pixels
  13. Height           : 1 080 pixels
  14. Display aspect ratio       : 16:9
  15. Frame rate mode        : Constant
  16. Frame rate           : 23.976 (24000/1001) FPS
  17. Color space          : YUV
  18. Chroma subsampling       : 4:2:0
  19. Bit depth          : 8 bits
  20. Scan type          : Progressive
  21. Title            : King.Arthur.Legend.of.the.Sword.2017.1080p.BluRay.REMUX.AVC.DTS-HD.MA.TrueHD.7.1.Atmos-FGT
  22. Language           : English
  23. Default            : No
  24. Forced           : No

  25. Audio #1
  26. ID             : 2
  27. Format           : DTS
  28. Format/Info          : Digital Theater Systems
  29. Format profile         : MA / Core
  30. Mode             : 16
  31. Format settings, Endianness    : Big
  32. Codec ID           : A_DTS
  33. Duration           : 2 h 6 min
  34. Bit rate mode          : Variable / Constant
  35. Bit rate           : Unknown / 1 509 kb/s
  36. Channel(s)           : 8 channels / 6 channels
  37. Channel positions        : Front: L C R, Side: L R, Back: L R, LFE / Front: L C R, Side: L R, LFE
  38. Sampling rate          : 48.0 kHz
  39. Frame rate           : 93.750 FPS (512 spf)
  40. Bit depth          : 24 bits
  41. Compression mode         : Lossless / Lossy
  42. Title            : King.Arthur.Legend.of.the.Sword.2017.1080p.BluRay.REMUX.AVC.DTS-HD.MA.TrueHD.7.1.Atmos-FGT
  43. Language           : English
  44. Default            : Yes
  45. Forced           : No

  46. Audio #2
  47. ID             : 3
  48. Format           : TrueHD
  49. Format profile         : TrueHD+Atmos / TrueHD
  50. Codec ID           : A_TRUEHD
  51. Bit rate mode          : Variable
  52. Maximum bit rate         : 6 243 kb/s
  53. Channel(s)           : Object Based / 8 channels
  54. Channel positions        : Object Based / Front: L C R, Side: L R, Back: L R, LFE
  55. Sampling rate          :/ 48.0 kHz
  56. Frame rate           : 1 200.000 FPS (40 spf)
  57. Compression mode         : Lossless
  58. Title            : King.Arthur.Legend.of.the.Sword.2017.1080p.BluRay.REMUX.AVC.DTS-HD.MA.TrueHD.7.1.Atmos-FGT
  59. Language           : English
  60. Default            : No
  61. Forced           : No

  62. Audio #3
  63. ID             : 4
  64. Format           : AC-3
  65. Format/Info          : Audio Coding 3
  66. Format settings, Endianness    : Big
  67. Codec ID           : A_AC3
  68. Duration           : 2 h 6 min
  69. Bit rate mode          : Constant
  70. Bit rate           : 448 kb/s
  71. Channel(s)           : 6 channels
  72. Channel positions        : Front: L C R, Side: L R, LFE
  73. Sampling rate          : 48.0 kHz
  74. Frame rate           : 31.250 FPS (1536 spf)
  75. Bit depth          : 16 bits
  76. Compression mode         : Lossy
  77. Stream size          : 404 MiB (1%)
  78. Title            : King.Arthur.Legend.of.the.Sword.2017.1080p.BluRay.REMUX.AVC.DTS-HD.MA.TrueHD.7.1.Atmos-FGT
  79. Language           : English
  80. Service kind         : Complete Main
  81. Default            : No
  82. Forced           : No

  83. Audio #4
  84. ID             : 5
  85. Format           : AC-3
  86. Format/Info          : Audio Coding 3
  87. Format settings, Endianness    : Big
  88. Codec ID           : A_AC3
  89. Duration           : 2 h 6 min
  90. Bit rate mode          : Constant
  91. Bit rate           : 448 kb/s
  92. Channel(s)           : 6 channels
  93. Channel positions        : Front: L C R, Side: L R, LFE
  94. Sampling rate          : 48.0 kHz
  95. Frame rate           : 31.250 FPS (1536 spf)
  96. Bit depth          : 16 bits
  97. Compression mode         : Lossy
  98. Stream size          : 404 MiB (1%)
  99. Title            : King.Arthur.Legend.of.the.Sword.2017.1080p.BluRay.REMUX.AVC.DTS-HD.MA.TrueHD.7.1.Atmos-FGT
  100. Language           : English
  101. Service kind         : Complete Main
  102. Default            : No
  103. Forced           : No

  104. Audio #5
  105. ID             : 6
  106. Format           : AC-3
  107. Format/Info          : Audio Coding 3
  108. Format settings, Endianness    : Big
  109. Codec ID           : A_AC3
  110. Duration           : 2 h 6 min
  111. Bit rate mode          : Constant
  112. Bit rate           : 448 kb/s
  113. Channel(s)           : 6 channels
  114. Channel positions        : Front: L C R, Side: L R, LFE
  115. Sampling rate          : 48.0 kHz
  116. Frame rate           : 31.250 FPS (1536 spf)
  117. Bit depth          : 16 bits
  118. Compression mode         : Lossy
  119. Stream size          : 404 MiB (1%)
  120. Title            : King.Arthur.Legend.of.the.Sword.2017.1080p.BluRay.REMUX.AVC.DTS-HD.MA.TrueHD.7.1.Atmos-FGT
  121. Language           : French
  122. Service kind         : Complete Main
  123. Default            : No
  124. Forced           : No

  125. Audio #6
  126. ID             : 7
  127. Format           : AC-3
  128. Format/Info          : Audio Coding 3
  129. Format settings, Endianness    : Big
  130. Codec ID           : A_AC3
  131. Duration           : 2 h 6 min
  132. Bit rate mode          : Constant
  133. Bit rate           : 448 kb/s
  134. Channel(s)           : 6 channels
  135. Channel positions        : Front: L C R, Side: L R, LFE
  136. Sampling rate          : 48.0 kHz
  137. Frame rate           : 31.250 FPS (1536 spf)
  138. Bit depth          : 16 bits
  139. Compression mode         : Lossy
  140. Stream size          : 404 MiB (1%)
  141. Title            : King.Arthur.Legend.of.the.Sword.2017.1080p.BluRay.REMUX.AVC.DTS-HD.MA.TrueHD.7.1.Atmos-FGT
  142. Language           : Spanish
  143. Service kind         : Complete Main
  144. Default            : No
  145. Forced           : No

  146. Audio #7
  147. ID             : 8
  148. Format           : AC-3
  149. Format/Info          : Audio Coding 3
  150. Format settings, Endianness    : Big
  151. Codec ID           : A_AC3
  152. Duration           : 2 h 6 min
  153. Bit rate mode          : Constant
  154. Bit rate           : 448 kb/s
  155. Channel(s)           : 6 channels
  156. Channel positions        : Front: L C R, Side: L R, LFE
  157. Sampling rate          : 48.0 kHz
  158. Frame rate           : 31.250 FPS (1536 spf)
  159. Bit depth          : 16 bits
  160. Compression mode         : Lossy
  161. Stream size          : 404 MiB (1%)
  162. Title            : King.Arthur.Legend.of.the.Sword.2017.1080p.BluRay.REMUX.AVC.DTS-HD.MA.TrueHD.7.1.Atmos-FGT
  163. Language           : Portuguese
  164. Service kind         : Complete Main
  165. Default            : No
  166. Forced           : No

  167. Text #1
  168. ID             : 9
  169. Format           : PGS
  170. Muxing mode          : zlib
  171. Codec ID           : S_HDMV/PGS
  172. Codec ID/Info          : Picture based subtitle format used on BDs/HD-DVDs
  173. Title            : English-PGS
  174. Language           : English
  175. Default            : Yes
  176. Forced           : No

  177. Text #2
  178. ID             : 10
  179. Format           : PGS
  180. Muxing mode          : zlib
  181. Codec ID           : S_HDMV/PGS
  182. Codec ID/Info          : Picture based subtitle format used on BDs/HD-DVDs
  183. Title            : French-PGS
  184. Language           : French
  185. Default            : No
  186. Forced           : No

  187. Text #3
  188. ID             : 11
  189. Format           : PGS
  190. Muxing mode          : zlib
  191. Codec ID           : S_HDMV/PGS
  192. Codec ID/Info          : Picture based subtitle format used on BDs/HD-DVDs
  193. Title            : Spanish-PGS
  194. Language           : Spanish
  195. Default            : No
  196. Forced           : No

  197. Text #4
  198. ID             : 12
  199. Format           : PGS
  200. Muxing mode          : zlib
  201. Codec ID           : S_HDMV/PGS
  202. Codec ID/Info          : Picture based subtitle format used on BDs/HD-DVDs
  203. Title            : Portuguese-PGS
  204. Language           : Portuguese
  205. Default            : No
  206. Forced           : No

  207. Text #5
  208. ID             : 13
  209. Format           : PGS
  210. Muxing mode          : zlib
  211. Codec ID           : S_HDMV/PGS
  212. Codec ID/Info          : Picture based subtitle format used on BDs/HD-DVDs
  213. Title            : French-FORCED-PGS
  214. Language           : French
  215. Default            : No
  216. Forced           : No

  217. Text #6
  218. ID             : 14
  219. Format           : PGS
  220. Muxing mode          : zlib
  221. Codec ID           : S_HDMV/PGS
  222. Codec ID/Info          : Picture based subtitle format used on BDs/HD-DVDs
  223. Title            : Portuguese-PGS
  224. Language           : Portuguese
  225. Default            : No
  226. Forced           : No

  227. Menu
  228. 00:00:00.000         : en:Chapter 01
  229. 00:12:43.220         : en:Chapter 02
  230. 00:21:05.347         : en:Chapter 03
  231. 00:32:32.659         : en:Chapter 04
  232. 00:43:09.378         : en:Chapter 05
  233. 00:56:47.987         : en:Chapter 06
  234. 01:06:48.546         : en:Chapter 07
  235. 01:14:13.031         : en:Chapter 08
  236. 01:23:44.394         : en:Chapter 09
  237. 01:36:36.791         : en:Chapter 10
  238. 01:46:57.244         : en:Chapter 11
  239. 01:58:58.798         : en:Chapter 12



  240. Notes :
  241. Converted the TrueHD 7.1 track to DTS HD-MA 7.1.

复制代码
复制代码
105913jltitl2wm1wcmxnc.jpg 105913kkexr8c1z5x5eezg.jpg 105913aa87356369f68667.jpg 105913chplhx9gxl9x999p.jpg 105913lm99ip7775760h0u.jpg 105913b82weev4tev6v66j.jpg




King.Arthur.Legend.of.the.Sword.2017.1080p.BluRay.REMUX.AVC.DTS-HD.MA.TrueHD.7.1.torrent

74.68 KB, 下载次数: 54, 下载积分: 蓝光币 -2

回复

使用道具 举报

蓝光币
821
发表于 2018-1-5 21:23:04 | 显示全部楼层

感谢分享,下来看看
回复

使用道具 举报

蓝光币
821
发表于 2018-1-23 21:21:35 | 显示全部楼层
感谢分享,下来看看
回复

使用道具 举报

懒得打字嘛,点击右侧快捷回复 【右侧内容,后台自定义】
您需要登录后才可以回帖 登录 | 立即加入

本版积分规则

Archiver| |网站地图

Copyright © 2024 Comsenz Inc. Powered by 蓝光电影网

本站内容由用户自主分享和转载自互联网,转载目的在于传递更多信息,并不代表本网赞同其观点和对其真实性负责。

如有侵权、违反国家法律政策行为,请联系我们,我们会第一时间及时清除和处理!

举报反馈邮箱:4k1080.com@gmail.com

快速回复 返回顶部 返回列表