找回密码

查看: 4098|回复: 0

[动画] 你的名字。/你的名字 Kimi.no.na.wa.aka.Your.Name.2016.JAPANESE.1080p.BluRay.REMUX.AVC.DTS-HD.MA.5.1-FGT 31.93GB

[复制链接]
蓝光币
1992
发表于 2017-12-21 00:22:12 | 显示全部楼层 |阅读模式
105945bvq8vc0yy2vor3jj.jpg
◎译  名 你的名字。 / 你的名字 / 君之名 / Your Name
◎片  名 你的名字。 君の名は。
◎年  代 2016
◎国  家 日本
◎类  别 剧情 / 恋爱 / 动画
◎语  言 日语
◎上映日期 2016-12-02(中国大陆) / 2016-08-26(日本)
◎IMDb评分8.5/10 from 41,949 users
◎IMDb链接http://www.imdb.com/title/tt5311514/
◎豆瓣评分 8.5/10 from 367932 users
◎豆瓣链接 https://movie.douban.com/subject/26683290/
◎片  长 106分钟
◎导  演 新海诚
◎主  演 神木隆之介 Ry?nosuke Kamiki
      上白石萌音 Mone Kamishiraishi
      长泽雅美 Masami Nagasawa
      市原悦子 Etsuko Ichihara
      成田凌 Ryo Narita
      悠木碧 Aoi Yuki
      岛崎信长 Nobunaga Shimazaki
      石川界人 Kaito Ishikawa
      谷花音 Tani Kanon

◎简  介 

  在阔别大城市的小山村,住着巫女世家身世的高中女孩宫水三叶(上白石萌音 配音)。校园和家庭的缘由本就让她布满懊恼,而近一段时候发生的希奇事务,又让三叶摸不清脑筋。不知从何时起,三叶在梦中就会酿成一个住在东京的高中男孩。那边有陌生的同学和朋友,有亲热的先辈和富贵的街道,一切都是如此诱人而实在。另一方面,住在东京的高中男孩立花泷(神木隆之介 配音)则总在梦里来到陌生的小山村,以女孩子的身份过着全新的生活。许是受那颗奥秘彗星的影响,立花和三叶在梦中交换了身份。他们以他者的角度体验着对方的人生,这时代有愤慨、有欢笑也有暖心。只是两人并不晓得,身份交换的背后隐藏侧严重而锥心的奥秘……
  本片为2016年过活本外乡影片票房冠军。

◎获奖情况 

  第40届日本电影学院奖 (2017)
  最好动画片(提名)
  最好导演(提名) 新海诚
  最好编剧 新海诚
  最好配乐

  第44届动画安妮奖 (2017)
  最好自力动画长片(提名)
  最好导演(提名) 新海诚

  第11届亚洲电影大奖 (2017)
  最好编剧(提名) 新海诚

  第42届洛杉矶影评人协会奖 (2016)
  最好动画片



  1. Video
  2. ID             : 1
  3. Format           : AVC
  4. Format/Info          : Advanced Video Codec
  5. Format profile         : [email]High@L4.1[/email]
  6. Format settings, CABAC       : Yes
  7. Format settings, ReFrames      : 4 frames
  8. Codec ID           : V_MPEG4/ISO/AVC
  9. Duration           : 1 h 46 min
  10. Bit rate mode          : Variable
  11. Maximum bit rate         : 35.0 Mb/s
  12. Width            : 1 920 pixels
  13. Height           : 1 080 pixels
  14. Display aspect ratio       : 16:9
  15. Frame rate mode        : Constant
  16. Frame rate           : 23.976 (24000/1001) FPS
  17. Color space          : YUV
  18. Chroma subsampling       : 4:2:0
  19. Bit depth          : 8 bits
  20. Scan type          : Progressive
  21. Title            : Kimi.no.na.wa.aka.Your.Name.2016.JAPANESE.1080p.BluRay.REMUX.AVC.DTS-HD.MA.5.1-FGT
  22. Language           : English
  23. Default            : No
  24. Forced           : No

  25. Audio #1
  26. ID             : 2
  27. Format           : DTS
  28. Format/Info          : Digital Theater Systems
  29. Format profile         : MA / Core
  30. Mode             : 16
  31. Format settings, Endianness    : Big
  32. Codec ID           : A_DTS
  33. Duration           : 1 h 46 min
  34. Bit rate mode          : Variable / Constant
  35. Bit rate           : Unknown / 1 509 kb/s
  36. Channel(s)           : 6 channels
  37. Channel positions        : Front: L C R, Side: L R, LFE
  38. Sampling rate          : 48.0 kHz
  39. Frame rate           : 93.750 FPS (512 spf)
  40. Bit depth          : 24 bits
  41. Compression mode         : Lossless / Lossy
  42. Title            : Kimi.no.na.wa.aka.Your.Name.2016.JAPANESE.1080p.BluRay.REMUX.AVC.DTS-HD.MA.5.1-FGT
  43. Language           : Japanese
  44. Default            : Yes
  45. Forced           : No

  46. Audio #2
  47. ID             : 3
  48. Format           : DTS
  49. Format/Info          : Digital Theater Systems
  50. Mode             : 16
  51. Format settings, Endianness    : Big
  52. Codec ID           : A_DTS
  53. Duration           : 1 h 46 min
  54. Bit rate mode          : Constant
  55. Bit rate           : 1 509 kb/s
  56. Channel(s)           : 6 channels
  57. Channel positions        : Front: L C R, Side: L R, LFE
  58. Sampling rate          : 48.0 kHz
  59. Frame rate           : 93.750 FPS (512 spf)
  60. Bit depth          : 24 bits
  61. Compression mode         : Lossy
  62. Stream size          : 1.12GB (4%)
  63. Title            : Kimi.no.na.wa.aka.Your.Name.2016.JAPANESE.1080p.BluRay.REMUX.AVC.DTS-HD.MA.5.1-FGT
  64. Language           : Japanese
  65. Default            : No
  66. Forced           : No

  67. Audio #3
  68. ID             : 4
  69. Format           : DTS
  70. Format/Info          : Digital Theater Systems
  71. Format profile         : MA / Core
  72. Mode             : 16
  73. Format settings, Endianness    : Big
  74. Codec ID           : A_DTS
  75. Duration           : 1 h 46 min
  76. Bit rate mode          : Variable / Constant
  77. Bit rate           : Unknown / 768 kb/s
  78. Channel(s)           : 2 channels
  79. Channel positions        : Front: L R
  80. Sampling rate          : 48.0 kHz
  81. Frame rate           : 93.750 FPS (512 spf)
  82. Bit depth          : 16 bits
  83. Compression mode         : Lossless / Lossy
  84. Title            : Kimi.no.na.wa.aka.Your.Name.2016.JAPANESE.1080p.BluRay.REMUX.AVC.DTS-HD.MA.5.1-FGT
  85. Language           : Japanese
  86. Default            : No
  87. Forced           : No

  88. Audio #4
  89. ID             : 5
  90. Format           : DTS
  91. Format/Info          : Digital Theater Systems
  92. Mode             : 16
  93. Format settings, Endianness    : Big
  94. Codec ID           : A_DTS
  95. Duration           : 1 h 46 min
  96. Bit rate mode          : Constant
  97. Bit rate           : 768 kb/s
  98. Channel(s)           : 2 channels
  99. Channel positions        : Front: L R
  100. Sampling rate          : 48.0 kHz
  101. Frame rate           : 93.750 FPS (512 spf)
  102. Bit depth          : 16 bits
  103. Compression mode         : Lossy
  104. Stream size          : 586 MiB (2%)
  105. Title            : Kimi.no.na.wa.aka.Your.Name.2016.JAPANESE.1080p.BluRay.REMUX.AVC.DTS-HD.MA.5.1-FGT
  106. Language           : Japanese
  107. Default            : No
  108. Forced           : No

  109. Audio #5
  110. ID             : 6
  111. Format           : DTS
  112. Format/Info          : Digital Theater Systems
  113. Format profile         : MA / Core
  114. Mode             : 16
  115. Format settings, Endianness    : Big
  116. Codec ID           : A_DTS
  117. Duration           : 1 h 46 min
  118. Bit rate mode          : Variable / Constant
  119. Bit rate           : Unknown / 1 509 kb/s
  120. Channel(s)           : 6 channels
  121. Channel positions        : Front: L C R, Side: L R, LFE
  122. Sampling rate          : 48.0 kHz
  123. Frame rate           : 93.750 FPS (512 spf)
  124. Bit depth          : 16 bits
  125. Compression mode         : Lossless / Lossy
  126. Title            : Kimi.no.na.wa.aka.Your.Name.2016.JAPANESE.1080p.BluRay.REMUX.AVC.DTS-HD.MA.5.1-FGT
  127. Language           : Japanese
  128. Default            : No
  129. Forced           : No

  130. Audio #6
  131. ID             : 7
  132. Format           : DTS
  133. Format/Info          : Digital Theater Systems
  134. Mode             : 16
  135. Format settings, Endianness    : Big
  136. Codec ID           : A_DTS
  137. Duration           : 1 h 46 min
  138. Bit rate mode          : Constant
  139. Bit rate           : 1 509 kb/s
  140. Channel(s)           : 6 channels
  141. Channel positions        : Front: L C R, Side: L R, LFE
  142. Sampling rate          : 48.0 kHz
  143. Frame rate           : 93.750 FPS (512 spf)
  144. Bit depth          : 16 bits
  145. Compression mode         : Lossy
  146. Stream size          : 1.12GB (4%)
  147. Title            : Kimi.no.na.wa.aka.Your.Name.2016.JAPANESE.1080p.BluRay.REMUX.AVC.DTS-HD.MA.5.1-FGT
  148. Language           : Japanese
  149. Default            : No
  150. Forced           : No

  151. Audio #7
  152. ID             : 8
  153. Format           : DTS
  154. Format/Info          : Digital Theater Systems
  155. Format profile         : MA / Core
  156. Mode             : 16
  157. Format settings, Endianness    : Big
  158. Codec ID           : A_DTS
  159. Duration           : 1 h 46 min
  160. Bit rate mode          : Variable / Constant
  161. Bit rate           : Unknown / 768 kb/s
  162. Channel(s)           : 2 channels
  163. Channel positions        : Front: L R
  164. Sampling rate          : 48.0 kHz
  165. Frame rate           : 93.750 FPS (512 spf)
  166. Bit depth          : 16 bits
  167. Compression mode         : Lossless / Lossy
  168. Title            : Kimi.no.na.wa.aka.Your.Name.2016.JAPANESE.1080p.BluRay.REMUX.AVC.DTS-HD.MA.5.1-FGT
  169. Language           : Japanese
  170. Default            : No
  171. Forced           : No

  172. Audio #8
  173. ID             : 9
  174. Format           : DTS
  175. Format/Info          : Digital Theater Systems
  176. Mode             : 16
  177. Format settings, Endianness    : Big
  178. Codec ID           : A_DTS
  179. Duration           : 1 h 46 min
  180. Bit rate mode          : Constant
  181. Bit rate           : 768 kb/s
  182. Channel(s)           : 2 channels
  183. Channel positions        : Front: L R
  184. Sampling rate          : 48.0 kHz
  185. Frame rate           : 93.750 FPS (512 spf)
  186. Bit depth          : 16 bits
  187. Compression mode         : Lossy
  188. Stream size          : 586 MiB (2%)
  189. Title            : Kimi.no.na.wa.aka.Your.Name.2016.JAPANESE.1080p.BluRay.REMUX.AVC.DTS-HD.MA.5.1-FGT
  190. Language           : Japanese
  191. Default            : No
  192. Forced           : No

  193. Text #1
  194. ID             : 10
  195. Format           : PGS
  196. Muxing mode          : zlib
  197. Codec ID           : S_HDMV/PGS
  198. Codec ID/Info          : Picture based subtitle format used on BDs/HD-DVDs
  199. Title            : English-SDH-PGS
  200. Language           : English
  201. Default            : Yes
  202. Forced           : No

  203. Text #2
  204. ID             : 11
  205. Format           : PGS
  206. Muxing mode          : zlib
  207. Codec ID           : S_HDMV/PGS
  208. Codec ID/Info          : Picture based subtitle format used on BDs/HD-DVDs
  209. Title            : English-PGS
  210. Language           : English
  211. Default            : No
  212. Forced           : No

  213. Text #3
  214. ID             : 12
  215. Format           : PGS
  216. Muxing mode          : zlib
  217. Codec ID           : S_HDMV/PGS
  218. Codec ID/Info          : Picture based subtitle format used on BDs/HD-DVDs
  219. Title            : Japanese-PGS
  220. Language           : Japanese
  221. Default            : No
  222. Forced           : No

  223. Text #4
  224. ID             : 13
  225. Format           : PGS
  226. Muxing mode          : zlib
  227. Codec ID           : S_HDMV/PGS
  228. Codec ID/Info          : Picture based subtitle format used on BDs/HD-DVDs
  229. Title            : Chinese-PGS
  230. Language           : Chinese
  231. Default            : No
  232. Forced           : No

  233. Menu
  234. 00:00:00.000         : ja:Chapter 01
  235. 00:01:34.094         : ja:Chapter 02
  236. 00:03:21.868         : ja:Chapter 03
  237. 00:05:13.271         : ja:Chapter 04
  238. 00:08:37.308         : ja:Chapter 05
  239. 00:12:11.313         : ja:Chapter 06
  240. 00:14:32.371         : ja:Chapter 07
  241. 00:17:22.499         : ja:Chapter 08
  242. 00:22:57.918         : ja:Chapter 09
  243. 00:27:05.624         : ja:Chapter 10
  244. 00:28:16.569         : ja:Chapter 11
  245. 00:29:53.541         : ja:Chapter 12
  246. 00:32:42.835         : ja:Chapter 13
  247. 00:37:26.994         : ja:Chapter 14
  248. 00:41:57.765         : ja:Chapter 15
  249. 00:44:30.334         : ja:Chapter 16
  250. 00:45:54.001         : ja:Chapter 17
  251. 00:48:28.655         : ja:Chapter 18
  252. 00:53:01.386         : ja:Chapter 19
  253. 00:56:53.868         : ja:Chapter 20
  254. 01:03:42.318         : ja:Chapter 21
  255. 01:06:03.793         : ja:Chapter 22
  256. 01:09:44.930         : ja:Chapter 23
  257. 01:12:41.815         : ja:Chapter 24
  258. 01:16:42.472         : ja:Chapter 25
  259. 01:21:21.710         : ja:Chapter 26
  260. 01:29:12.805         : ja:Chapter 27
  261. 01:32:51.857         : ja:Chapter 28
  262. 01:37:01.732         : ja:Chapter 29
  263. 01:41:19.615         : ja:Chapter 30
  264. 01:46:34.638         : ja:Chapter 31



复制代码
复制代码
105945dbcn6z3bbbncmb6e.jpg 105945hpxp3xgzlu6k8fgm.jpg 105945d965199t5tk811wv.jpg 105945orvar9cm72czltln.jpg 105945zz8fs7ziw07p1zm7.jpg 105945qhl0hsh9n33v55ad.jpg

                                


Kimi.no.na.wa.aka.Your.Name.2016.JAPANESE.1080p.BluRay.REMUX.AVC.DTS-HD.MA.5.1-FGT.torrent

80.43 KB, 下载次数: 48, 下载积分: 蓝光币 -2

回复

使用道具 举报

懒得打字嘛,点击右侧快捷回复 【右侧内容,后台自定义】
您需要登录后才可以回帖 登录 | 立即加入

本版积分规则

Archiver| |网站地图

Copyright © 2024 Comsenz Inc. Powered by 蓝光电影网

本站内容由用户自主分享和转载自互联网,转载目的在于传递更多信息,并不代表本网赞同其观点和对其真实性负责。

如有侵权、违反国家法律政策行为,请联系我们,我们会第一时间及时清除和处理!

举报反馈邮箱:4k1080.com@gmail.com

快速回复 返回顶部 返回列表