找回密码

查看: 3452|回复: 1

[犯罪] 一锤定音 Shot.Caller.2017.1080p.BluRay.REMUX.AVC.TrueHD.5.1-FGT 32.62GB

[复制链接]
蓝光币
1992
发表于 2017-12-21 00:22:33 | 显示全部楼层 |阅读模式
110024tj09bvjw9up00lpr.jpg
◎译  名 一锤定音
◎片  名 一锤定音 Shot Caller
◎年  代 2016
◎国  家 美国
◎类  别 剧情 / 惊悚 / 犯罪
◎语  言 英语
◎上映日期 2017-06-17(洛杉矶电影节)
◎IMDb评分7.7/10 from 1,277 users
◎IMDb链接http://www.imdb.com/title/tt4633690/
◎豆瓣评分 今朝无人评价
◎豆瓣链接 https://movie.douban.com/subject/26383898/
◎片  长 121分钟
◎导  演 里克·罗曼·沃夫
◎主  演 尼古拉·科斯特-瓦尔道 Nikolaj Coster-Waldau
      乔·博恩瑟 Jon Bernthal
      蕾克·贝尔 Lake Bell
      欧玛瑞·哈德威克 Omari Hardwick
      杰弗里·多诺万 Jeffrey Donovan
      洁西·斯克拉姆 Jessy Schram
      本杰明·布拉特 Benjamin Bratt
      伊万·琼斯 Evan Jones
      马特·杰拉德 Matt Gerald
      迈克尔·兰德斯 Michael Landes
      艾莫里·科恩 Emory Cohen
      Chris Browning
      基思·雅各 Keith Jardine

◎简  介 

  A newly released prison gangster is forced by the leaders of his gang to orchestrate a major crime with a brutal rival gang on the streets of Southern California.



  1. Video
  2. ID             : 1
  3. Format           : AVC
  4. Format/Info          : Advanced Video Codec
  5. Format profile         : [email]High@L4.1[/email]
  6. Format settings, CABAC       : Yes
  7. Format settings, ReFrames      : 4 frames
  8. Codec ID           : V_MPEG4/ISO/AVC
  9. Duration           : 2 h 0 min
  10. Bit rate mode          : Variable
  11. Maximum bit rate         : 35.0 Mb/s
  12. Width            : 1 920 pixels
  13. Height           : 1 080 pixels
  14. Display aspect ratio       : 16:9
  15. Frame rate mode        : Constant
  16. Frame rate           : 23.976 (24000/1001) FPS
  17. Standard           : NTSC
  18. Color space          : YUV
  19. Chroma subsampling       : 4:2:0
  20. Bit depth          : 8 bits
  21. Scan type          : Progressive
  22. Title            : Shot.Caller.2017.1080p.BluRay.REMUX.AVC.TrueHD.5.1-FGT
  23. Language           : English
  24. Default            : No
  25. Forced           : No
  26. Color range          : Limited
  27. Color primaries        : BT.709
  28. Transfer characteristics     : BT.709
  29. Matrix coefficients        : BT.709

  30. Audio #1
  31. ID             : 2
  32. Format           : TrueHD
  33. Codec ID           : A_TRUEHD
  34. Duration           : 2 h 0 min
  35. Bit rate mode          : Variable
  36. Maximum bit rate         : 5 172 kb/s
  37. Channel(s)           : 6 channels
  38. Channel positions        : Front: L C R, Side: L R, LFE
  39. Sampling rate          : 48.0 kHz
  40. Frame rate           : 1 200.000 FPS (40 spf)
  41. Compression mode         : Lossless
  42. Title            : Shot.Caller.2017.1080p.BluRay.REMUX.AVC.TrueHD.5.1-FGT
  43. Language           : English
  44. Default            : Yes
  45. Forced           : No

  46. Audio #2
  47. ID             : 3
  48. Format           : AC-3
  49. Format/Info          : Audio Coding 3
  50. Format settings, Endianness    : Big
  51. Codec ID           : A_AC3
  52. Duration           : 2 h 0 min
  53. Bit rate mode          : Constant
  54. Bit rate           : 640 kb/s
  55. Channel(s)           : 6 channels
  56. Channel positions        : Front: L C R, Side: L R, LFE
  57. Sampling rate          : 48.0 kHz
  58. Frame rate           : 31.250 FPS (1536 spf)
  59. Bit depth          : 16 bits
  60. Compression mode         : Lossy
  61. Stream size          : 553 MiB (2%)
  62. Title            : Shot.Caller.2017.1080p.BluRay.REMUX.AVC.TrueHD.5.1-FGT
  63. Language           : English
  64. Service kind         : Complete Main
  65. Default            : No
  66. Forced           : No

  67. Audio #3
  68. ID             : 4
  69. Format           : TrueHD
  70. Codec ID           : A_TRUEHD
  71. Duration           : 2 h 0 min
  72. Bit rate mode          : Variable
  73. Maximum bit rate         : 5 079 kb/s
  74. Channel(s)           : 6 channels
  75. Channel positions        : Front: L C R, Side: L R, LFE
  76. Sampling rate          : 48.0 kHz
  77. Frame rate           : 1 200.000 FPS (40 spf)
  78. Compression mode         : Lossless
  79. Title            : Shot.Caller.2017.1080p.BluRay.REMUX.AVC.TrueHD.5.1-FGT
  80. Language           : French
  81. Default            : No
  82. Forced           : No

  83. Audio #4
  84. ID             : 5
  85. Format           : AC-3
  86. Format/Info          : Audio Coding 3
  87. Format settings, Endianness    : Big
  88. Codec ID           : A_AC3
  89. Duration           : 2 h 0 min
  90. Bit rate mode          : Constant
  91. Bit rate           : 640 kb/s
  92. Channel(s)           : 6 channels
  93. Channel positions        : Front: L C R, Side: L R, LFE
  94. Sampling rate          : 48.0 kHz
  95. Frame rate           : 31.250 FPS (1536 spf)
  96. Bit depth          : 16 bits
  97. Compression mode         : Lossy
  98. Stream size          : 553 MiB (2%)
  99. Title            : Shot.Caller.2017.1080p.BluRay.REMUX.AVC.TrueHD.5.1-FGT
  100. Language           : French
  101. Service kind         : Complete Main
  102. Default            : No
  103. Forced           : No

  104. Text #1
  105. ID             : 6
  106. Format           : PGS
  107. Muxing mode          : zlib
  108. Codec ID           : S_HDMV/PGS
  109. Codec ID/Info          : Picture based subtitle format used on BDs/HD-DVDs
  110. Title            : English-PGS
  111. Language           : English
  112. Default            : Yes
  113. Forced           : No

  114. Text #2
  115. ID             : 7
  116. Format           : PGS
  117. Muxing mode          : zlib
  118. Codec ID           : S_HDMV/PGS
  119. Codec ID/Info          : Picture based subtitle format used on BDs/HD-DVDs
  120. Title            : French-PGS
  121. Language           : French
  122. Default            : No
  123. Forced           : No

  124. Text #3
  125. ID             : 8
  126. Format           : PGS
  127. Muxing mode          : zlib
  128. Codec ID           : S_HDMV/PGS
  129. Codec ID/Info          : Picture based subtitle format used on BDs/HD-DVDs
  130. Title            : French-FORCED-PGS
  131. Language           : French
  132. Default            : No
  133. Forced           : No

  134. Menu
  135. 00:00:00.000         : en:Chapter 01
  136. 00:22:10.620         : en:Chapter 02
  137. 00:35:14.570         : en:Chapter 03
  138. 00:53:04.848         : en:Chapter 04
  139. 01:06:42.039         : en:Chapter 05
  140. 01:22:27.359         : en:Chapter 06
  141. 01:40:29.481         : en:Chapter 07
  142. 01:54:38.454         : en:Chapter 08



复制代码
复制代码
110024ofg99q8z9fq93pss.jpg 110024yxnftj0ojzcu7u7n.jpg 110024co0c86zx69uojcxc.jpg 110024uo3o17arzt1yrp30.jpg 110024e0rcw2qztwtk4crk.jpg 110024eyykgkwx5w508w8w.jpg

                                


Shot.Caller.2017.1080p.BluRay.REMUX.AVC.TrueHD.5.1-FGT.torrent

82.09 KB, 下载次数: 49, 下载积分: 蓝光币 -2

回复

使用道具 举报

懒得打字嘛,点击右侧快捷回复 【右侧内容,后台自定义】
您需要登录后才可以回帖 登录 | 立即加入

本版积分规则

Archiver| |网站地图

Copyright © 2024 Comsenz Inc. Powered by 蓝光电影网

本站内容由用户自主分享和转载自互联网,转载目的在于传递更多信息,并不代表本网赞同其观点和对其真实性负责。

如有侵权、违反国家法律政策行为,请联系我们,我们会第一时间及时清除和处理!

举报反馈邮箱:4k1080.com@gmail.com

快速回复 返回顶部 返回列表