找回密码

查看: 2446|回复: 2

[剧情] 同囚 With.Prisoners.2017.CHINESE.1080p.BluRay.REMUX.AVC.TrueHD.5.1-FGT 19.42GB

[复制链接]
蓝光币
1992
发表于 2017-12-21 00:27:48 | 显示全部楼层 |阅读模式
110746fmicsjpa22mbbjej.jpg
◎译  名 同囚 / With Prisoners
◎片  名 同囚
◎年  代 2017
◎国  家 香港
◎类  别 剧情
◎语  言 粤语
◎上映日期 2017-05-04(香港)
◎IMDb评分6.4/10 from 28 users
◎IMDb链接http://www.imdb.com/title/tt6850758/
◎豆瓣评分 5.6/10 from 310 users
◎豆瓣链接 https://movie.douban.com/subject/26897027/
◎片  长 无片长信息
◎导  演 黄国权
◎主  演 游学修 Neo Yau
      关楚耀 Kelvin Kwan Chor-yiu
      郭奕芯 Ashina Kwok
      赵永洪 Raymond Chiu
      赵咏瑶 Kimi Chiu
      徐伟栋 Edward Chui Woei Dong
      乔宝宝 Gill Mohindepaul Singh
      汉洋 Hon Yeung
      李国麟 Kwok-Lun Lee
      谭嘉荃 Amy Tam Ka-Chuen
      岑珈其 Kaki Sham
      麦以马

◎简  介 

  香港,是一个文化、法治的社会,实在不应当存在一个不仁道、没法无天的牢狱,特别是一个负责扣押轻度罪犯,年龄由14岁至未满25岁的青少年,美其名叫劳教中心。 被软禁的监犯天天履历身、心、灵的虐打和欺侮,可以说那边是一间天堂。 配角阿凡,是一位古惑仔头子,因一次与警察发生稍微抵触而被判入劳教中心。入狱后三日,已经忍受不住狱中的残暴看待而决议自杀。获救后,靠著一份对峙要出狱探望病危外婆的信心,忍辱偷生,并终极能以最短刑期分开。进程中阿凡目击及履历各类欺侮,更有遇上同囚古怪灭亡的事务,真相将永久杳无音信。 真的只要一种方式让人悔改本身吗?天下上真的需要一所这样的劳教中心吗?



  1. Video
  2. ID             : 1
  3. Format           : AVC
  4. Format/Info          : Advanced Video Codec
  5. Format profile         : [email]High@L4.1[/email]
  6. Format settings, CABAC       : Yes
  7. Format settings, ReFrames      : 4 frames
  8. Codec ID           : V_MPEG4/ISO/AVC
  9. Duration           : 1 h 40 min
  10. Bit rate mode          : Variable
  11. Maximum bit rate         : 27.0 Mb/s
  12. Width            : 1 920 pixels
  13. Height           : 1 080 pixels
  14. Display aspect ratio       : 16:9
  15. Frame rate mode        : Constant
  16. Frame rate           : 24.000 FPS
  17. Standard           : NTSC
  18. Color space          : YUV
  19. Chroma subsampling       : 4:2:0
  20. Bit depth          : 8 bits
  21. Scan type          : Progressive
  22. Title            : With.Prisoners.2017.CHINESE.1080p.BluRay.REMUX.AVC.TrueHD.5.1-FGT
  23. Language           : English
  24. Default            : No
  25. Forced           : No
  26. Color range          : Limited
  27. Color primaries        : BT.709
  28. Transfer characteristics     : BT.709
  29. Matrix coefficients        : BT.709

  30. Audio #1
  31. ID             : 2
  32. Format           : TrueHD
  33. Codec ID           : A_TRUEHD
  34. Duration           : 1 h 40 min
  35. Bit rate mode          : Variable
  36. Maximum bit rate         : 4 386 kb/s
  37. Channel(s)           : 6 channels
  38. Channel positions        : Front: L C R, Side: L R, LFE
  39. Sampling rate          : 96.0 kHz
  40. Frame rate           : 2 400.000 FPS (40 spf)
  41. Compression mode         : Lossless
  42. Title            : With.Prisoners.2017.CHINESE.1080p.BluRay.REMUX.AVC.TrueHD.5.1-FGT
  43. Language           : Chinese
  44. Default            : Yes
  45. Forced           : No

  46. Audio #2
  47. ID             : 3
  48. Format           : AC-3
  49. Format/Info          : Audio Coding 3
  50. Format settings, Endianness    : Big
  51. Codec ID           : A_AC3
  52. Duration           : 1 h 40 min
  53. Bit rate mode          : Constant
  54. Bit rate           : 640 kb/s
  55. Channel(s)           : 6 channels
  56. Channel positions        : Front: L C R, Side: L R, LFE
  57. Sampling rate          : 48.0 kHz
  58. Frame rate           : 31.250 FPS (1536 spf)
  59. Bit depth          : 16 bits
  60. Compression mode         : Lossy
  61. Stream size          : 459 MiB (2%)
  62. Title            : With.Prisoners.2017.CHINESE.1080p.BluRay.REMUX.AVC.TrueHD.5.1-FGT
  63. Language           : Chinese
  64. Service kind         : Complete Main
  65. Default            : No
  66. Forced           : No

  67. Audio #3
  68. ID             : 4
  69. Format           : TrueHD
  70. Codec ID           : A_TRUEHD
  71. Duration           : 1 h 40 min
  72. Bit rate mode          : Variable
  73. Maximum bit rate         : 4 380 kb/s
  74. Channel(s)           : 6 channels
  75. Channel positions        : Front: L C R, Side: L R, LFE
  76. Sampling rate          : 96.0 kHz
  77. Frame rate           : 2 400.000 FPS (40 spf)
  78. Compression mode         : Lossless
  79. Title            : With.Prisoners.2017.CHINESE.1080p.BluRay.REMUX.AVC.TrueHD.5.1-FGT
  80. Language           : Chinese
  81. Default            : No
  82. Forced           : No

  83. Audio #4
  84. ID             : 5
  85. Format           : AC-3
  86. Format/Info          : Audio Coding 3
  87. Format settings, Endianness    : Big
  88. Codec ID           : A_AC3
  89. Duration           : 1 h 40 min
  90. Bit rate mode          : Constant
  91. Bit rate           : 640 kb/s
  92. Channel(s)           : 6 channels
  93. Channel positions        : Front: L C R, Side: L R, LFE
  94. Sampling rate          : 48.0 kHz
  95. Frame rate           : 31.250 FPS (1536 spf)
  96. Bit depth          : 16 bits
  97. Compression mode         : Lossy
  98. Stream size          : 459 MiB (2%)
  99. Title            : With.Prisoners.2017.CHINESE.1080p.BluRay.REMUX.AVC.TrueHD.5.1-FGT
  100. Language           : Chinese
  101. Service kind         : Complete Main
  102. Default            : No
  103. Forced           : No

  104. Text #1
  105. ID             : 6
  106. Format           : PGS
  107. Muxing mode          : zlib
  108. Codec ID           : S_HDMV/PGS
  109. Codec ID/Info          : Picture based subtitle format used on BDs/HD-DVDs
  110. Title            : English-PGS
  111. Language           : English
  112. Default            : Yes
  113. Forced           : No

  114. Text #2
  115. ID             : 7
  116. Format           : PGS
  117. Muxing mode          : zlib
  118. Codec ID           : S_HDMV/PGS
  119. Codec ID/Info          : Picture based subtitle format used on BDs/HD-DVDs
  120. Title            : Chinese-PGS
  121. Language           : Chinese
  122. Default            : No
  123. Forced           : No

  124. Menu
  125. 00:00:00.000         : en:Chapter 01
  126. 00:03:43.458         : en:Chapter 02
  127. 00:06:54.666         : en:Chapter 03
  128. 00:11:51.000         : en:Chapter 04
  129. 00:15:47.041         : en:Chapter 05
  130. 00:20:59.500         : en:Chapter 06
  131. 00:28:21.666         : en:Chapter 07
  132. 00:33:40.166         : en:Chapter 08
  133. 00:38:51.125         : en:Chapter 09
  134. 00:41:54.916         : en:Chapter 10
  135. 00:48:28.666         : en:Chapter 11
  136. 00:53:32.125         : en:Chapter 12
  137. 00:56:24.958         : en:Chapter 13
  138. 01:01:25.666         : en:Chapter 14
  139. 01:05:00.333         : en:Chapter 15
  140. 01:08:30.583         : en:Chapter 16
  141. 01:12:29.166         : en:Chapter 17
  142. 01:18:30.166         : en:Chapter 18
  143. 01:25:15.166         : en:Chapter 19
  144. 01:32:16.375         : en:Chapter 20



复制代码
复制代码
110746g6m7ladisw87wlm5.jpg 110746l2mpmonn5pn6gma2.jpg 110746cvrcvsywqllwpeye.jpg 110746g9e65kktn88tk5qk.jpg 110746tansavdrvtx4o4xf.jpg 110746s6fmboab0mmmmc89.jpg

                                


回复

使用道具 举报

懒得打字嘛,点击右侧快捷回复 【右侧内容,后台自定义】
您需要登录后才可以回帖 登录 | 立即加入

本版积分规则

Archiver| |网站地图

Copyright © 2024 Comsenz Inc. Powered by 蓝光电影网

本站内容由用户自主分享和转载自互联网,转载目的在于传递更多信息,并不代表本网赞同其观点和对其真实性负责。

如有侵权、违反国家法律政策行为,请联系我们,我们会第一时间及时清除和处理!

举报反馈邮箱:4k1080.com@gmail.com

快速回复 返回顶部 返回列表