找回密码

查看: 5795|回复: 7

[科幻] 银河护卫队2/星际异攻队2 Guardians.of.the.Galaxy.Vol.2.2017.1080p.BluRay.REMUX.AVC.DTS-HD.MA.7.1-FGT 33.81GB

[复制链接]
蓝光币
1984
发表于 2017-12-21 00:28:38 | 显示全部楼层 |阅读模式
110849vnm92w4ul9hddzm4.jpg
◎译  名 银河保护队2 / 星际异攻队2 / 银河保护队2 / 银护2 / Guardians of the Galaxy 2
◎片  名 银河保护队2 Guardians of the Galaxy Vol. 2
◎年  代 2017
◎国  家 美国
◎类  别 行动 / 科幻 / 冒险
◎语  言 英语
◎上映日期 2017-05-05(中国大陆/美国) / 2017-04-25(澳大利亚)
◎IMDb评分8.0/10 from 204,655 users
◎IMDb链接http://www.imdb.com/title/tt3896198/
◎豆瓣评分 8.2/10 from 146285 users
◎豆瓣链接 https://movie.douban.com/subject/25937854/
◎片  长 136分钟
◎导  演 詹姆斯·古恩
◎主  演 克里斯·普拉特 Chris Pratt
      佐伊·索尔达娜 Zoe Saldana
      戴夫·巴蒂斯塔 Dave Bautista
      范·迪塞尔 Vin Diesel
      布莱德利·库珀 Bradley Cooper
      凯伦·吉兰 Karen Gillan
      迈克尔·鲁克 Michael Rooker
      庞·克莱门捷夫 Pom Klementieff
      伊丽莎白·德比茨基 Elizabeth Debicki
      肖恩·古恩 Sean Gunn
      库尔特·拉塞尔 Kurt Russell
      克里斯·沙利文 Chris Sullivan
      大卫·哈塞尔霍夫 David Hasselhoff
      西尔维斯特·史泰龙 Sylvester Stallone
      杨紫琼 Michelle Yeoh

◎简  介 

  火箭浣熊(布莱德利·库珀 Bradley Cooper 饰)偷走了大祭司阿耶莎(伊丽莎白·德比齐 Elizabeth Debicki 饰)的能量电池,包括星爵(克里斯·帕拉特 Chris Pratt 饰)、卡魔拉(佐伊·索尔达娜 Zoe Saldana 饰)、德拉克斯(戴夫·巴蒂斯塔 Dave Bautista 饰)在内的一行人遭到了后者派出的舰队的攻击。一个奥秘人物乘坐着飞船救下了银河保护队的众人,而驾驶着飞船的不是他人,居然正是星爵的亲生父亲伊戈(库尔特·拉塞尔 Kurt Russell 饰)。
  在伊戈的率领下,星爵、卡魔拉和德拉克斯来到了由伊戈一手制造的星球上,而剩下的成员们则动手修复损坏的飞船。何处厢,阿耶莎拜托勇度(迈克尔·鲁克 Michael Rooker 饰)捉住星爵替自己报仇,而卡魔拉亦渐渐发现了伊戈和善脸孔下隐藏的庞大诡计。



  1. Video
  2. ID             : 1
  3. Format           : AVC
  4. Format/Info          : Advanced Video Codec
  5. Format profile         : [email]High@L4.1[/email]
  6. Format settings, CABAC       : Yes
  7. Format settings, ReFrames      : 4 frames
  8. Codec ID           : V_MPEG4/ISO/AVC
  9. Duration           : 2 h 15 min
  10. Bit rate mode          : Variable
  11. Maximum bit rate         : 34.0 Mb/s
  12. Width            : 1 920 pixels
  13. Height           : 1 080 pixels
  14. Display aspect ratio       : 16:9
  15. Frame rate mode        : Constant
  16. Frame rate           : 23.976 (24000/1001) FPS
  17. Color space          : YUV
  18. Chroma subsampling       : 4:2:0
  19. Bit depth          : 8 bits
  20. Scan type          : Progressive
  21. Title            : Guardians.of.the.Galaxy.Vol.2.2017.1080p.BluRay.REMUX.AVC.DTS-HD.MA.7.1-FGT
  22. Language           : English
  23. Default            : No
  24. Forced           : No

  25. Audio #1
  26. ID             : 2
  27. Format           : DTS
  28. Format/Info          : Digital Theater Systems
  29. Format profile         : MA / Core
  30. Mode             : 16
  31. Format settings, Endianness    : Big
  32. Codec ID           : A_DTS
  33. Duration           : 2 h 15 min
  34. Bit rate mode          : Variable / Constant
  35. Bit rate           : Unknown / 1 509 kb/s
  36. Channel(s)           : 8 channels / 6 channels
  37. Channel positions        : Front: L C R, Side: L R, Back: L R, LFE / Front: L C R, Side: L R, LFE
  38. Sampling rate          : 48.0 kHz
  39. Frame rate           : 93.750 FPS (512 spf)
  40. Bit depth          : 24 bits
  41. Compression mode         : Lossless / Lossy
  42. Title            : Guardians.of.the.Galaxy.Vol.2.2017.1080p.BluRay.REMUX.AVC.DTS-HD.MA.7.1-FGT
  43. Language           : English
  44. Default            : Yes
  45. Forced           : No

  46. Audio #2
  47. ID             : 3
  48. Format           : DTS
  49. Format/Info          : Digital Theater Systems
  50. Mode             : 16
  51. Format settings, Endianness    : Big
  52. Codec ID           : A_DTS
  53. Duration           : 2 h 15 min
  54. Bit rate mode          : Constant
  55. Bit rate           : 1 509 kb/s
  56. Channel(s)           : 6 channels
  57. Channel positions        : Front: L C R, Side: L R, LFE
  58. Sampling rate          : 48.0 kHz
  59. Frame rate           : 93.750 FPS (512 spf)
  60. Bit depth          : 24 bits
  61. Compression mode         : Lossy
  62. Stream size          : 1.43GB (4%)
  63. Title            : Guardians.of.the.Galaxy.Vol.2.2017.1080p.BluRay.REMUX.AVC.DTS-HD.MA.7.1-FGT
  64. Language           : English
  65. Default            : No
  66. Forced           : No

  67. Audio #3
  68. ID             : 4
  69. Format           : AC-3
  70. Format/Info          : Audio Coding 3
  71. Format settings, Endianness    : Big
  72. Codec ID           : A_AC3
  73. Duration           : 2 h 15 min
  74. Bit rate mode          : Constant
  75. Bit rate           : 320 kb/s
  76. Channel(s)           : 2 channels
  77. Channel positions        : Front: L R
  78. Sampling rate          : 48.0 kHz
  79. Frame rate           : 31.250 FPS (1536 spf)
  80. Bit depth          : 16 bits
  81. Compression mode         : Lossy
  82. Stream size          : 311 MiB (1%)
  83. Title            : Guardians.of.the.Galaxy.Vol.2.2017.1080p.BluRay.REMUX.AVC.DTS-HD.MA.7.1-FGT
  84. Language           : English
  85. Service kind         : Complete Main
  86. Default            : No
  87. Forced           : No

  88. Audio #4
  89. ID             : 5
  90. Format           : AC-3
  91. Format/Info          : Audio Coding 3
  92. Format settings, Endianness    : Big
  93. Codec ID           : A_AC3
  94. Duration           : 2 h 15 min
  95. Bit rate mode          : Constant
  96. Bit rate           : 640 kb/s
  97. Channel(s)           : 6 channels
  98. Channel positions        : Front: L C R, Side: L R, LFE
  99. Sampling rate          : 48.0 kHz
  100. Frame rate           : 31.250 FPS (1536 spf)
  101. Bit depth          : 16 bits
  102. Compression mode         : Lossy
  103. Stream size          : 622 MiB (2%)
  104. Title            : Guardians.of.the.Galaxy.Vol.2.2017.1080p.BluRay.REMUX.AVC.DTS-HD.MA.7.1-FGT
  105. Language           : French
  106. Service kind         : Complete Main
  107. Default            : No
  108. Forced           : No

  109. Audio #5
  110. ID             : 6
  111. Format           : AC-3
  112. Format/Info          : Audio Coding 3
  113. Format settings, Endianness    : Big
  114. Codec ID           : A_AC3
  115. Duration           : 2 h 15 min
  116. Bit rate mode          : Constant
  117. Bit rate           : 640 kb/s
  118. Channel(s)           : 6 channels
  119. Channel positions        : Front: L C R, Side: L R, LFE
  120. Sampling rate          : 48.0 kHz
  121. Frame rate           : 31.250 FPS (1536 spf)
  122. Bit depth          : 16 bits
  123. Compression mode         : Lossy
  124. Stream size          : 622 MiB (2%)
  125. Title            : Guardians.of.the.Galaxy.Vol.2.2017.1080p.BluRay.REMUX.AVC.DTS-HD.MA.7.1-FGT
  126. Language           : Spanish
  127. Service kind         : Complete Main
  128. Default            : No
  129. Forced           : No

  130. Audio #6
  131. ID             : 7
  132. Format           : AC-3
  133. Format/Info          : Audio Coding 3
  134. Format settings, Endianness    : Big
  135. Codec ID           : A_AC3
  136. Duration           : 2 h 15 min
  137. Bit rate mode          : Constant
  138. Bit rate           : 192 kb/s
  139. Channel(s)           : 2 channels
  140. Channel positions        : Front: L R
  141. Sampling rate          : 48.0 kHz
  142. Frame rate           : 31.250 FPS (1536 spf)
  143. Bit depth          : 16 bits
  144. Compression mode         : Lossy
  145. Stream size          : 186 MiB (1%)
  146. Title            : Guardians.of.the.Galaxy.Vol.2.2017.1080p.BluRay.REMUX.AVC.DTS-HD.MA.7.1-FGT
  147. Language           : English
  148. Service kind         : Complete Main
  149. Default            : No
  150. Forced           : No

  151. Text #1
  152. ID             : 8
  153. Format           : PGS
  154. Muxing mode          : zlib
  155. Codec ID           : S_HDMV/PGS
  156. Codec ID/Info          : Picture based subtitle format used on BDs/HD-DVDs
  157. Title            : English-PGS
  158. Language           : English
  159. Default            : Yes
  160. Forced           : No

  161. Text #2
  162. ID             : 9
  163. Format           : PGS
  164. Muxing mode          : zlib
  165. Codec ID           : S_HDMV/PGS
  166. Codec ID/Info          : Picture based subtitle format used on BDs/HD-DVDs
  167. Title            : French-PGS
  168. Language           : French
  169. Default            : No
  170. Forced           : No

  171. Text #3
  172. ID             : 10
  173. Format           : PGS
  174. Muxing mode          : zlib
  175. Codec ID           : S_HDMV/PGS
  176. Codec ID/Info          : Picture based subtitle format used on BDs/HD-DVDs
  177. Title            : Spanish-PGS
  178. Language           : Spanish
  179. Default            : No
  180. Forced           : No

  181. Text #4
  182. ID             : 11
  183. Format           : PGS
  184. Muxing mode          : zlib
  185. Codec ID           : S_HDMV/PGS
  186. Codec ID/Info          : Picture based subtitle format used on BDs/HD-DVDs
  187. Title            : English-COMMENTARY-PGS
  188. Language           : English
  189. Default            : No
  190. Forced           : No

  191. Text #5
  192. ID             : 12
  193. Format           : PGS
  194. Muxing mode          : zlib
  195. Codec ID           : S_HDMV/PGS
  196. Codec ID/Info          : Picture based subtitle format used on BDs/HD-DVDs
  197. Title            : French-COMMENTARY-PGS
  198. Language           : French
  199. Default            : No
  200. Forced           : No

  201. Text #6
  202. ID             : 13
  203. Format           : PGS
  204. Muxing mode          : zlib
  205. Codec ID           : S_HDMV/PGS
  206. Codec ID/Info          : Picture based subtitle format used on BDs/HD-DVDs
  207. Title            : Spanish-COMMENTARY-PGS
  208. Language           : Spanish
  209. Default            : No
  210. Forced           : No

  211. Text #7
  212. ID             : 14
  213. Format           : PGS
  214. Muxing mode          : zlib
  215. Codec ID           : S_HDMV/PGS
  216. Codec ID/Info          : Picture based subtitle format used on BDs/HD-DVDs
  217. Title            : French-FORCED-PGS
  218. Language           : French
  219. Default            : No
  220. Forced           : No

  221. Text #8
  222. ID             : 15
  223. Format           : PGS
  224. Muxing mode          : zlib
  225. Codec ID           : S_HDMV/PGS
  226. Codec ID/Info          : Picture based subtitle format used on BDs/HD-DVDs
  227. Title            : Spanish-FORCED-PGS
  228. Language           : Spanish
  229. Default            : No
  230. Forced           : No

  231. Menu
  232. 00:00:00.000         : en:Chapter 01
  233. 00:09:56.178         : en:Chapter 02
  234. 00:15:10.117         : en:Chapter 03
  235. 00:22:14.082         : en:Chapter 04
  236. 00:32:33.701         : en:Chapter 05
  237. 00:36:52.126         : en:Chapter 06
  238. 00:42:29.171         : en:Chapter 07
  239. 00:48:03.463         : en:Chapter 08
  240. 00:53:18.904         : en:Chapter 09
  241. 00:58:45.939         : en:Chapter 10
  242. 01:05:52.239         : en:Chapter 11
  243. 01:11:12.434         : en:Chapter 12
  244. 01:18:43.593         : en:Chapter 13
  245. 01:23:55.321         : en:Chapter 14
  246. 01:30:24.752         : en:Chapter 15
  247. 01:39:36.178         : en:Chapter 16
  248. 01:47:06.211         : en:Chapter 17
  249. 01:54:21.604         : en:Chapter 18
  250. 01:58:53.709         : en:Chapter 19
  251. 02:07:13.459         : en:Chapter 20



复制代码
复制代码
110849ke0c6cehxlcue99k.jpg 110849hi967ir8in6in7h6.jpg 110849d88nhjacl8tlcgsi.jpg 110849pmrwznr9uza4zzgv.jpg 110849dyamkk0yiyqyik8a.jpg 110849uh7pmyi50djbdmem.jpg



回复

使用道具 举报

懒得打字嘛,点击右侧快捷回复 【右侧内容,后台自定义】
您需要登录后才可以回帖 登录 | 立即加入

本版积分规则

Archiver| |网站地图

Copyright © 2024 Comsenz Inc. Powered by 蓝光电影网

本站内容由用户自主分享和转载自互联网,转载目的在于传递更多信息,并不代表本网赞同其观点和对其真实性负责。

如有侵权、违反国家法律政策行为,请联系我们,我们会第一时间及时清除和处理!

举报反馈邮箱:4k1080.com@gmail.com

快速回复 返回顶部 返回列表