找回密码

查看: 2275|回复: 0

[剧情] 一切的一切/爱即一切 Everything.Everything.2017.1080p.BluRay.REMUX.AVC.DTS-HD.MA.5.1-FGT 27.78GB

[复制链接]
蓝光币
1974
发表于 2017-12-21 00:30:59 | 显示全部楼层 |阅读模式
111417xfxjj4bjdj24fjxk.jpg
◎译  名 一切的一切 / 爱即一切
◎片  名 一切的一切 Everything, Everything
◎年  代 2017
◎国  家 美国
◎类  别 剧情 / 恋爱
◎语  言 英语
◎上映日期 2017-05-19(美国)
◎IMDb评分6.3/10 from 5,633 users
◎IMDb链接http://www.imdb.com/title/tt5001718/
◎豆瓣评分 6.0/10 from 121 users
◎豆瓣链接 https://movie.douban.com/subject/26840738/
◎片  长 96分钟
◎导  演 斯特拉·梅吉
◎主  演 阿曼德拉·斯坦伯格Amandla Stenberg
      尼克·罗宾森 Nick Robinson
      阿尼卡·诺尼·罗斯 Anika Noni Rose
      安娜·德拉·雷古拉 Ana de la Reguera
      泰勒·辛克森 Taylor Hickson
      多瑙·埃莫西约 Danube Hermosillo
      丹·佩恩 Dan Payne
      菲奥娜·洛威 Fiona Loewi
      萨奇·布洛克勒班克 Sage Brocklebank
      罗伯特·劳兰逊 Robert Lawrenson
      彼得·本森 Peter Benson
      叶青春 Fran?oise Yip
      法林·万安贝克 Farryn VanHumbeck
      玛丽恩·伊斯曼 Marion Eisman
      艾莉森·莱利 Allison Riley

◎简  介 

  《饥饿游戏》《断头谷》妹子Amandla Stenberg将与《侏罗纪天下》《夏日之王》小哥Nick Robinson同伴,主演畅销青少年小说、客岁曾是纽约时报青少年小说销售榜第一的"Everything Everything"的电影版,前者已定出演,后者接近正式签约。报告女孩Maddy得了重关键合免疫缺点,这类罕有病让她几近对一切工具过敏,17岁的她一向躲在家里,打仗的人只要妈妈和护工。但当男孩Olly搬到隔邻,她爱上了他。而Olly也有自己的“恶魔”需要面临。
  米高梅公司在艾米莉亚·克拉克和山姆·克拉弗林主演新片、一样改编自畅销小说的《碰见你之前》获得票房成功后,鞭策了这个最新项目。将由新人导演&编剧Stella Meghie执导,估计9月开拍。



  1. Video
  2. ID             : 1
  3. Format           : AVC
  4. Format/Info          : Advanced Video Codec
  5. Format profile         : [email]High@L4.1[/email]
  6. Format settings, CABAC       : Yes
  7. Format settings, ReFrames      : 4 frames
  8. Codec ID           : V_MPEG4/ISO/AVC
  9. Duration           : 1 h 36 min
  10. Bit rate mode          : Variable
  11. Maximum bit rate         : 36.0 Mb/s
  12. Width            : 1 920 pixels
  13. Height           : 1 080 pixels
  14. Display aspect ratio       : 16:9
  15. Frame rate mode        : Constant
  16. Frame rate           : 23.976 (24000/1001) FPS
  17. Color space          : YUV
  18. Chroma subsampling       : 4:2:0
  19. Bit depth          : 8 bits
  20. Scan type          : Progressive
  21. Title            : Everything.Everything.2017.1080p.BluRay.REMUX.AVC.DTS-HD.MA.5.1-FGT
  22. Language           : English
  23. Default            : No
  24. Forced           : No

  25. Audio #1
  26. ID             : 2
  27. Format           : DTS
  28. Format/Info          : Digital Theater Systems
  29. Format profile         : MA / Core
  30. Mode             : 16
  31. Format settings, Endianness    : Big
  32. Codec ID           : A_DTS
  33. Duration           : 1 h 36 min
  34. Bit rate mode          : Variable / Constant
  35. Bit rate           : Unknown / 1 509 kb/s
  36. Channel(s)           : 6 channels
  37. Channel positions        : Front: L C R, Side: L R, LFE
  38. Sampling rate          : 48.0 kHz
  39. Frame rate           : 93.750 FPS (512 spf)
  40. Bit depth          : 24 bits
  41. Compression mode         : Lossless / Lossy
  42. Title            : Everything.Everything.2017.1080p.BluRay.REMUX.AVC.DTS-HD.MA.5.1-FGT
  43. Language           : English
  44. Default            : Yes
  45. Forced           : No

  46. Audio #2
  47. ID             : 3
  48. Format           : DTS
  49. Format/Info          : Digital Theater Systems
  50. Mode             : 16
  51. Format settings, Endianness    : Big
  52. Codec ID           : A_DTS
  53. Duration           : 1 h 36 min
  54. Bit rate mode          : Constant
  55. Bit rate           : 1 509 kb/s
  56. Channel(s)           : 6 channels
  57. Channel positions        : Front: L C R, Side: L R, LFE
  58. Sampling rate          : 48.0 kHz
  59. Frame rate           : 93.750 FPS (512 spf)
  60. Bit depth          : 24 bits
  61. Compression mode         : Lossy
  62. Stream size          : 1.02GB (4%)
  63. Title            : Everything.Everything.2017.1080p.BluRay.REMUX.AVC.DTS-HD.MA.5.1-FGT
  64. Language           : English
  65. Default            : No
  66. Forced           : No

  67. Audio #3
  68. ID             : 4
  69. Format           : AC-3
  70. Format/Info          : Audio Coding 3
  71. Format settings, Endianness    : Big
  72. Codec ID           : A_AC3
  73. Duration           : 1 h 36 min
  74. Bit rate mode          : Constant
  75. Bit rate           : 640 kb/s
  76. Channel(s)           : 6 channels
  77. Channel positions        : Front: L C R, Side: L R, LFE
  78. Sampling rate          : 48.0 kHz
  79. Frame rate           : 31.250 FPS (1536 spf)
  80. Bit depth          : 16 bits
  81. Compression mode         : Lossy
  82. Stream size          : 442 MiB (2%)
  83. Title            : Everything.Everything.2017.1080p.BluRay.REMUX.AVC.DTS-HD.MA.5.1-FGT
  84. Language           : English
  85. Service kind         : Complete Main
  86. Default            : No
  87. Forced           : No

  88. Audio #4
  89. ID             : 5
  90. Format           : AC-3
  91. Format/Info          : Audio Coding 3
  92. Format settings, Endianness    : Big
  93. Codec ID           : A_AC3
  94. Duration           : 1 h 36 min
  95. Bit rate mode          : Constant
  96. Bit rate           : 640 kb/s
  97. Channel(s)           : 6 channels
  98. Channel positions        : Front: L C R, Side: L R, LFE
  99. Sampling rate          : 48.0 kHz
  100. Frame rate           : 31.250 FPS (1536 spf)
  101. Bit depth          : 16 bits
  102. Compression mode         : Lossy
  103. Stream size          : 442 MiB (2%)
  104. Title            : Everything.Everything.2017.1080p.BluRay.REMUX.AVC.DTS-HD.MA.5.1-FGT
  105. Language           : French
  106. Service kind         : Complete Main
  107. Default            : No
  108. Forced           : No

  109. Audio #5
  110. ID             : 6
  111. Format           : AC-3
  112. Format/Info          : Audio Coding 3
  113. Format settings, Endianness    : Big
  114. Codec ID           : A_AC3
  115. Duration           : 1 h 36 min
  116. Bit rate mode          : Constant
  117. Bit rate           : 640 kb/s
  118. Channel(s)           : 6 channels
  119. Channel positions        : Front: L C R, Side: L R, LFE
  120. Sampling rate          : 48.0 kHz
  121. Frame rate           : 31.250 FPS (1536 spf)
  122. Bit depth          : 16 bits
  123. Compression mode         : Lossy
  124. Stream size          : 442 MiB (2%)
  125. Title            : Everything.Everything.2017.1080p.BluRay.REMUX.AVC.DTS-HD.MA.5.1-FGT
  126. Language           : Spanish
  127. Service kind         : Complete Main
  128. Default            : No
  129. Forced           : No

  130. Audio #6
  131. ID             : 7
  132. Format           : AC-3
  133. Format/Info          : Audio Coding 3
  134. Format settings, Endianness    : Big
  135. Codec ID           : A_AC3
  136. Duration           : 1 h 36 min
  137. Bit rate mode          : Constant
  138. Bit rate           : 640 kb/s
  139. Channel(s)           : 6 channels
  140. Channel positions        : Front: L C R, Side: L R, LFE
  141. Sampling rate          : 48.0 kHz
  142. Frame rate           : 31.250 FPS (1536 spf)
  143. Bit depth          : 16 bits
  144. Compression mode         : Lossy
  145. Stream size          : 442 MiB (2%)
  146. Title            : Everything.Everything.2017.1080p.BluRay.REMUX.AVC.DTS-HD.MA.5.1-FGT
  147. Language           : Portuguese
  148. Service kind         : Complete Main
  149. Default            : No
  150. Forced           : No

  151. Text #1
  152. ID             : 8
  153. Format           : PGS
  154. Muxing mode          : zlib
  155. Codec ID           : S_HDMV/PGS
  156. Codec ID/Info          : Picture based subtitle format used on BDs/HD-DVDs
  157. Title            : English-PGS
  158. Language           : English
  159. Default            : Yes
  160. Forced           : No

  161. Text #2
  162. ID             : 9
  163. Format           : PGS
  164. Muxing mode          : zlib
  165. Codec ID           : S_HDMV/PGS
  166. Codec ID/Info          : Picture based subtitle format used on BDs/HD-DVDs
  167. Title            : French-PGS
  168. Language           : French
  169. Default            : No
  170. Forced           : No

  171. Text #3
  172. ID             : 10
  173. Format           : PGS
  174. Muxing mode          : zlib
  175. Codec ID           : S_HDMV/PGS
  176. Codec ID/Info          : Picture based subtitle format used on BDs/HD-DVDs
  177. Title            : Spanish-PGS
  178. Language           : Spanish
  179. Default            : No
  180. Forced           : No

  181. Text #4
  182. ID             : 11
  183. Format           : PGS
  184. Muxing mode          : zlib
  185. Codec ID           : S_HDMV/PGS
  186. Codec ID/Info          : Picture based subtitle format used on BDs/HD-DVDs
  187. Title            : Portuguese-PGS
  188. Language           : Portuguese
  189. Default            : No
  190. Forced           : No

  191. Text #5
  192. ID             : 12
  193. Format           : PGS
  194. Muxing mode          : zlib
  195. Codec ID           : S_HDMV/PGS
  196. Codec ID/Info          : Picture based subtitle format used on BDs/HD-DVDs
  197. Title            : French-FORCED-PGS
  198. Language           : French
  199. Default            : No
  200. Forced           : No

  201. Text #6
  202. ID             : 13
  203. Format           : PGS
  204. Muxing mode          : zlib
  205. Codec ID           : S_HDMV/PGS
  206. Codec ID/Info          : Picture based subtitle format used on BDs/HD-DVDs
  207. Title            : Spanish-FORCED-PGS
  208. Language           : Spanish
  209. Default            : No
  210. Forced           : No

  211. Text #7
  212. ID             : 14
  213. Format           : PGS
  214. Muxing mode          : zlib
  215. Codec ID           : S_HDMV/PGS
  216. Codec ID/Info          : Picture based subtitle format used on BDs/HD-DVDs
  217. Title            : Portuguese-FORCED-PGS
  218. Language           : Portuguese
  219. Default            : No
  220. Forced           : No

  221. Menu
  222. 00:00:00.000         : en:Chapter 01
  223. 00:09:33.239         : en:Chapter 02
  224. 00:20:06.830         : en:Chapter 03
  225. 00:29:39.861         : en:Chapter 04
  226. 00:40:58.038         : en:Chapter 05
  227. 00:51:25.373         : en:Chapter 06
  228. 01:00:01.306         : en:Chapter 07
  229. 01:10:23.344         : en:Chapter 08
  230. 01:19:01.361         : en:Chapter 09
  231. 01:30:15.243         : en:Chapter 10



复制代码
复制代码
111417i5uugqlzqf9qgq0u.jpg 111417qibrl1kzlqkv0rao.jpg 111417qz8j11kuf3a8v8ez.jpg 111417c32a2tp24bnectq2.jpg 111417jpdzaed2bdfqgbr6.jpg 111418p7a1mng17xoqtni1.jpg



回复

使用道具 举报

懒得打字嘛,点击右侧快捷回复 【右侧内容,后台自定义】
您需要登录后才可以回帖 登录 | 立即加入

本版积分规则

Archiver| |网站地图

Copyright © 2024 Comsenz Inc. Powered by 蓝光电影网

本站内容由用户自主分享和转载自互联网,转载目的在于传递更多信息,并不代表本网赞同其观点和对其真实性负责。

如有侵权、违反国家法律政策行为,请联系我们,我们会第一时间及时清除和处理!

举报反馈邮箱:4k1080.com@gmail.com

快速回复 返回顶部 返回列表