找回密码

查看: 2619|回复: 0

[喜剧] 代孕妈妈/宝贝妈妈 Baby.Mama.2008.1080p.BluRay.REMUX.VC-1.DTS-HD.MA.5.1-FGT 19.50GB

[复制链接]
蓝光币
1992
发表于 2017-12-21 00:36:39 | 显示全部楼层 |阅读模式
111909sftkkh49440hxxk1.jpg
◎译  名 代孕妈妈 / 宝贝妈妈
◎片  名 代孕妈妈 Baby Mama
◎年  代 2008
◎国  家 美国
◎类  别 笑剧 / 恋爱
◎语  言 英语
◎上映日期 2008-04-25(美国)
◎IMDb评分6.0/10 from 35,845 users
◎IMDb链接http://www.imdb.com/title/tt0871426/
◎豆瓣评分 6.1/10 from 2818 users
◎豆瓣链接 https://movie.douban.com/subject/2364979/
◎片  长 99分钟
◎导  演 迈克尔·麦库勒斯
◎主  演 艾米·波勒 Amy Poehler
      蒂娜·菲 Tina Fey
      格雷戈·金尼尔 Greg Kinnear
      戴克斯·夏普德 Dax Shepard
      罗曼尼·马尔可 Romany Malco
      西格妮·韦弗 Sigourney Weaver
      史蒂夫·马丁 Steve Martin
      毛拉·蒂尔内 Maura Tierney
      斯蒂芬·梅尔勒 Stephen Mailer
      霍兰德·泰勒 Holland Taylor
      詹姆斯·瑞布霍恩 James Rebhorn
      丹尼斯·欧哈拉 Denis O'Hare
      Kevin Collins
      威尔·福特 Will Forte
      弗莱德·阿米森 Fred Armisen

◎简  介 

  凯特(蒂娜·菲 Tina Fey 饰)是个37岁的铁娘子,但她除了风平浪静的奇迹外几近一无一切,因而起了做单身妈妈、野生授精生子的动机。惋惜“不孕”的体检成果击碎了她的胡想,她只好找到代孕中心,选中了一个叫安吉的金发女孩(艾米·波勒 Amy Poehler 饰)为她代孕。安吉受孕成功了,本着驱逐孩子的欣喜心情,凯特做了大量物资预备,阅读大量育儿书籍,也驱逐安吉住进她家,可是很快两人发现相互格格不入,安吉是穷户区女孩,有着很多懒惰纵容的坏习惯,而凯特是上流社会铁娘子,很是重视教化规矩。两人的相处从冲突频发起头,冗长的九个月孕期布满了不服静……

◎获奖情况 

  第18届MTV电影奖 (2009)
  MTV电影奖 最好笑剧表演(提名) 艾米·波勒
  MTV电影奖 最目瞪口呆排场 艾米·波勒



  1. Video
  2. ID             : 1
  3. Format           : VC-1
  4. Format profile         : Advanced@L3
  5. Codec ID           : V_MS/VFW/FOURCC / WVC1
  6. Codec ID/Hint          : Microsoft
  7. Duration           : 1 h 38 min
  8. Width            : 1 920 pixels
  9. Height           : 1 080 pixels
  10. Display aspect ratio       : 16:9
  11. Frame rate mode        : Constant
  12. Frame rate           : 23.976 (24000/1001) FPS
  13. Color space          : YUV
  14. Chroma subsampling       : 4:2:0
  15. Bit depth          : 8 bits
  16. Scan type          : Progressive
  17. Compression mode         : Lossy
  18. Title            : Baby.Mama.2008.1080p.BluRay.REMUX.VC-1.DTS-HD.MA.5.1-FGT
  19. Language           : English
  20. Default            : No
  21. Forced           : No

  22. Audio #1
  23. ID             : 2
  24. Format           : DTS
  25. Format/Info          : Digital Theater Systems
  26. Format profile         : MA / Core
  27. Mode             : 16
  28. Format settings, Endianness    : Big
  29. Codec ID           : A_DTS
  30. Duration           : 1 h 38 min
  31. Bit rate mode          : Variable / Constant
  32. Bit rate           : Unknown / 1 509 kb/s
  33. Channel(s)           : 6 channels
  34. Channel positions        : Front: L C R, Side: L R, LFE
  35. Sampling rate          : 48.0 kHz
  36. Frame rate           : 93.750 FPS (512 spf)
  37. Bit depth          : 24 bits
  38. Compression mode         : Lossless / Lossy
  39. Title            : Baby.Mama.2008.1080p.BluRay.REMUX.VC-1.DTS-HD.MA.5.1-FGT
  40. Language           : English
  41. Default            : Yes
  42. Forced           : No

  43. Audio #2
  44. ID             : 3
  45. Format           : DTS
  46. Format/Info          : Digital Theater Systems
  47. Mode             : 16
  48. Format settings, Endianness    : Big
  49. Codec ID           : A_DTS
  50. Duration           : 1 h 38 min
  51. Bit rate mode          : Constant
  52. Bit rate           : 1 509 kb/s
  53. Channel(s)           : 6 channels
  54. Channel positions        : Front: L C R, Side: L R, LFE
  55. Sampling rate          : 48.0 kHz
  56. Frame rate           : 93.750 FPS (512 spf)
  57. Bit depth          : 24 bits
  58. Compression mode         : Lossy
  59. Stream size          : 1.04GB (5%)
  60. Title            : Baby.Mama.2008.1080p.BluRay.REMUX.VC-1.DTS-HD.MA.5.1-FGT
  61. Language           : English
  62. Default            : No
  63. Forced           : No

  64. Audio #3
  65. ID             : 4
  66. Format           : DTS
  67. Format/Info          : Digital Theater Systems
  68. Mode             : 16
  69. Format settings, Endianness    : Big
  70. Codec ID           : A_DTS
  71. Duration           : 1 h 38 min
  72. Bit rate mode          : Constant
  73. Bit rate           : 768 kb/s
  74. Channel(s)           : 6 channels
  75. Channel positions        : Front: L C R, Side: L R, LFE
  76. Sampling rate          : 48.0 kHz
  77. Frame rate           : 93.750 FPS (512 spf)
  78. Bit depth          : 24 bits
  79. Compression mode         : Lossy
  80. Stream size          : 544 MiB (3%)
  81. Title            : Baby.Mama.2008.1080p.BluRay.REMUX.VC-1.DTS-HD.MA.5.1-FGT
  82. Language           : Spanish
  83. Default            : No
  84. Forced           : No

  85. Audio #4
  86. ID             : 5
  87. Format           : DTS
  88. Format/Info          : Digital Theater Systems
  89. Mode             : 16
  90. Format settings, Endianness    : Big
  91. Codec ID           : A_DTS
  92. Duration           : 1 h 38 min
  93. Bit rate mode          : Constant
  94. Bit rate           : 768 kb/s
  95. Channel(s)           : 6 channels
  96. Channel positions        : Front: L C R, Side: L R, LFE
  97. Sampling rate          : 48.0 kHz
  98. Frame rate           : 93.750 FPS (512 spf)
  99. Bit depth          : 24 bits
  100. Compression mode         : Lossy
  101. Stream size          : 544 MiB (3%)
  102. Title            : Baby.Mama.2008.1080p.BluRay.REMUX.VC-1.DTS-HD.MA.5.1-FGT
  103. Language           : French
  104. Default            : No
  105. Forced           : No

  106. Audio #5
  107. ID             : 6
  108. Format           : AC-3
  109. Format/Info          : Audio Coding 3
  110. Mode             : Dolby Digital
  111. Format settings, Endianness    : Big
  112. Codec ID           : A_AC3
  113. Duration           : 1 h 38 min
  114. Bit rate mode          : Constant
  115. Bit rate           : 192 kb/s
  116. Channel(s)           : 2 channels
  117. Channel positions        : Front: L R
  118. Sampling rate          : 48.0 kHz
  119. Frame rate           : 31.250 FPS (1536 spf)
  120. Bit depth          : 16 bits
  121. Compression mode         : Lossy
  122. Stream size          : 136 MiB (1%)
  123. Title            : Baby.Mama.2008.1080p.BluRay.REMUX.VC-1.DTS-HD.MA.5.1-FGT
  124. Language           : English
  125. Service kind         : Complete Main
  126. Default            : No
  127. Forced           : No

  128. Text #1
  129. ID             : 7
  130. Format           : PGS
  131. Muxing mode          : zlib
  132. Codec ID           : S_HDMV/PGS
  133. Codec ID/Info          : Picture based subtitle format used on BDs/HD-DVDs
  134. Title            : English-PGS
  135. Language           : English
  136. Default            : Yes
  137. Forced           : No

  138. Text #2
  139. ID             : 8
  140. Format           : PGS
  141. Muxing mode          : zlib
  142. Codec ID           : S_HDMV/PGS
  143. Codec ID/Info          : Picture based subtitle format used on BDs/HD-DVDs
  144. Title            : Spanish-PGS
  145. Language           : Spanish
  146. Default            : No
  147. Forced           : No

  148. Text #3
  149. ID             : 9
  150. Format           : PGS
  151. Muxing mode          : zlib
  152. Codec ID           : S_HDMV/PGS
  153. Codec ID/Info          : Picture based subtitle format used on BDs/HD-DVDs
  154. Title            : French-PGS
  155. Language           : French
  156. Default            : No
  157. Forced           : No

  158. Text #4
  159. ID             : 10
  160. Format           : PGS
  161. Muxing mode          : zlib
  162. Codec ID           : S_HDMV/PGS
  163. Codec ID/Info          : Picture based subtitle format used on BDs/HD-DVDs
  164. Title            : Spanish-FORCED-PGS
  165. Language           : Spanish
  166. Default            : No
  167. Forced           : No

  168. Text #5
  169. ID             : 11
  170. Format           : PGS
  171. Muxing mode          : zlib
  172. Codec ID           : S_HDMV/PGS
  173. Codec ID/Info          : Picture based subtitle format used on BDs/HD-DVDs
  174. Title            : French-FORCED-PGS
  175. Language           : French
  176. Default            : No
  177. Forced           : No

  178. Menu
  179. 00:00:00.000         : en:Chapter 01
  180. 00:04:56.212         : en:Chapter 02
  181. 00:09:21.727         : en:Chapter 03
  182. 00:15:35.559         : en:Chapter 04
  183. 00:20:27.976         : en:Chapter 05
  184. 00:24:26.339         : en:Chapter 06
  185. 00:30:21.110         : en:Chapter 07
  186. 00:35:02.058         : en:Chapter 08
  187. 00:40:39.895         : en:Chapter 09
  188. 00:43:44.413         : en:Chapter 10
  189. 00:49:01.396         : en:Chapter 11
  190. 00:53:43.345         : en:Chapter 12
  191. 00:58:25.919         : en:Chapter 13
  192. 01:03:08.159         : en:Chapter 14
  193. 01:08:15.716         : en:Chapter 15
  194. 01:15:45.082         : en:Chapter 16
  195. 01:19:35.395         : en:Chapter 17
  196. 01:22:58.181         : en:Chapter 18
  197. 01:28:37.437         : en:Chapter 19
  198. 01:32:28.543         : en:Chapter 20



复制代码
复制代码
111909k93zsjd777s4jas9.jpg 111909vop0zmap0lgml82p.jpg 111909b9xb5xtr0x28kckz.jpg 111909ty4earo5iggqw4vq.jpg 111909teydihtpmtl6d7zt.jpg 111909yvba741c1ce7vulu.jpg

                                


回复

使用道具 举报

懒得打字嘛,点击右侧快捷回复 【右侧内容,后台自定义】
您需要登录后才可以回帖 登录 | 立即加入

本版积分规则

Archiver| |网站地图

Copyright © 2024 Comsenz Inc. Powered by 蓝光电影网

本站内容由用户自主分享和转载自互联网,转载目的在于传递更多信息,并不代表本网赞同其观点和对其真实性负责。

如有侵权、违反国家法律政策行为,请联系我们,我们会第一时间及时清除和处理!

举报反馈邮箱:4k1080.com@gmail.com

快速回复 返回顶部 返回列表