找回密码

查看: 2473|回复: 0

[剧情] 永生的海拉/海瑞塔·拉克斯的不朽人生 The.Immortal.Life.of.Henrietta.Lacks.2017.1080p.BluRay.REMUX.AVC.DTS-HD.MA.5.1-FGT 19.64GB

[复制链接]
蓝光币
1992
发表于 2017-12-21 09:23:51 | 显示全部楼层 |阅读模式
113934y9962z6j28ib2i9i.jpg
◎译  名 永生的海拉 / 海瑞塔·拉克斯的不朽人生 / 海拉细胞的不死传奇(港/台)
◎片  名 永生的海拉 The Immortal Life of Henrietta Lacks
◎年  代 2017
◎国  家 美国
◎类  别 剧情
◎语  言 英语
◎上映日期 2017-04-22(美国)
◎IMDb评分6.3/10 from 1,479 users
◎IMDb链接http://www.imdb.com/title/tt5686132/
◎豆瓣评分 今朝无人评价
◎豆瓣链接 https://movie.douban.com/subject/26838175/
◎片  长 无片长信息
◎导  演 乔治·乌尔夫
◎主  演 奥普拉·温弗瑞 Oprah Winfrey
      萝丝·拜恩 Rose Byrne

◎简  介 

  故事按照Rebecca Skloot的纪实文学改编。题目人物Henrietta Lacks是上世纪五十年月一位身患癌症的黑人女性,1951年医学研讨者不法从她身上获得了癌细胞,成果却引出了使人震动的医学冲破——不但改变了很多人的命运,甚至改变了全部医学界。据称那时Henrietta Lacks的细胞被用来缔造第一株「不死的」人体干细胞——在接管植入后的一个星期仍然存活。
  该剧的仆人公是Henrietta Lacks的女儿Deborah Lacks(Oprah Winfrey),她试图了解一个自己从未见过的母亲,研讨她与现代医学成长之间的奇异关联。剧情深入揭穿了医学界的狂妄、自豪、种族、贫困等题目,同时深入分解「最不成能成为朋友的人」若何建立起「最深厚的友谊」。Rose Byrne饰演年轻女记者Rebecca Skloot,她正在观察Henrietta Lacks的故事及其「不死的」细胞。她与Henrietta的女儿、魅力非凡但性情复杂的Deborah建立了密切友谊。
  经太长达十多年的观察研讨,Rebecca终极写出了著名的《Henrietta Lacks的不朽人生》(The Immortal Life of Henrietta Lacks)。这本书出书后立即登上《纽约时报》畅销书排行榜,而且在榜单上逗留了整整四年时候,影响力甚为深远。(cr 天涯小筑)

◎获奖情况 

  第69届黄金时段艾美奖 (2017)
  迷你剧/电视电影 最好电视电影(提名)



  1. Video
  2. ID             : 1
  3. Format           : AVC
  4. Format/Info          : Advanced Video Codec
  5. Format profile         : [email]High@L4.1[/email]
  6. Format settings, CABAC       : Yes
  7. Format settings, ReFrames      : 4 frames
  8. Codec ID           : V_MPEG4/ISO/AVC
  9. Duration           : 1 h 32 min
  10. Bit rate mode          : Variable
  11. Maximum bit rate         : 35.0 Mb/s
  12. Width            : 1 920 pixels
  13. Height           : 1 080 pixels
  14. Display aspect ratio       : 16:9
  15. Frame rate mode        : Constant
  16. Frame rate           : 23.976 (24000/1001) FPS
  17. Color space          : YUV
  18. Chroma subsampling       : 4:2:0
  19. Bit depth          : 8 bits
  20. Scan type          : Progressive
  21. Title            : The.Immortal.Life.of.Henrietta.Lacks.2017.1080p.BluRay.REMUX.AVC.DTS-HD.MA.5.1-FGT
  22. Language           : English
  23. Default            : No
  24. Forced           : No

  25. Audio #1
  26. ID             : 2
  27. Format           : DTS
  28. Format/Info          : Digital Theater Systems
  29. Format profile         : MA / Core
  30. Mode             : 16
  31. Format settings, Endianness    : Big
  32. Codec ID           : A_DTS
  33. Duration           : 1 h 32 min
  34. Bit rate mode          : Variable / Constant
  35. Bit rate           : Unknown / 1 509 kb/s
  36. Channel(s)           : 6 channels
  37. Channel positions        : Front: L C R, Side: L R, LFE
  38. Sampling rate          : 48.0 kHz
  39. Frame rate           : 93.750 FPS (512 spf)
  40. Bit depth          : 24 bits
  41. Compression mode         : Lossless / Lossy
  42. Title            : The.Immortal.Life.of.Henrietta.Lacks.2017.1080p.BluRay.REMUX.AVC.DTS-HD.MA.5.1-FGT
  43. Language           : English
  44. Default            : Yes
  45. Forced           : No

  46. Audio #2
  47. ID             : 3
  48. Format           : DTS
  49. Format/Info          : Digital Theater Systems
  50. Mode             : 16
  51. Format settings, Endianness    : Big
  52. Codec ID           : A_DTS
  53. Duration           : 1 h 32 min
  54. Bit rate mode          : Constant
  55. Bit rate           : 1 509 kb/s
  56. Channel(s)           : 6 channels
  57. Channel positions        : Front: L C R, Side: L R, LFE
  58. Sampling rate          : 48.0 kHz
  59. Frame rate           : 93.750 FPS (512 spf)
  60. Bit depth          : 24 bits
  61. Compression mode         : Lossy
  62. Stream size          : 1 000 MiB (5%)
  63. Title            : The.Immortal.Life.of.Henrietta.Lacks.2017.1080p.BluRay.REMUX.AVC.DTS-HD.MA.5.1-FGT
  64. Language           : English
  65. Default            : No
  66. Forced           : No

  67. Audio #3
  68. ID             : 4
  69. Format           : DTS
  70. Format/Info          : Digital Theater Systems
  71. Mode             : 16
  72. Format settings, Endianness    : Big
  73. Codec ID           : A_DTS
  74. Duration           : 1 h 32 min
  75. Bit rate mode          : Constant
  76. Bit rate           : 768 kb/s
  77. Channel(s)           : 6 channels
  78. Channel positions        : Front: L C R, Side: L R, LFE
  79. Sampling rate          : 48.0 kHz
  80. Frame rate           : 93.750 FPS (512 spf)
  81. Bit depth          : 24 bits
  82. Compression mode         : Lossy
  83. Stream size          : 509 MiB (3%)
  84. Title            : The.Immortal.Life.of.Henrietta.Lacks.2017.1080p.BluRay.REMUX.AVC.DTS-HD.MA.5.1-FGT
  85. Language           : French
  86. Default            : No
  87. Forced           : No

  88. Audio #4
  89. ID             : 5
  90. Format           : DTS
  91. Format/Info          : Digital Theater Systems
  92. Mode             : 16
  93. Format settings, Endianness    : Big
  94. Codec ID           : A_DTS
  95. Duration           : 1 h 32 min
  96. Bit rate mode          : Constant
  97. Bit rate           : 768 kb/s
  98. Channel(s)           : 2 channels
  99. Channel positions        : Front: L R
  100. Sampling rate          : 48.0 kHz
  101. Frame rate           : 93.750 FPS (512 spf)
  102. Bit depth          : 24 bits
  103. Compression mode         : Lossy
  104. Stream size          : 509 MiB (3%)
  105. Title            : The.Immortal.Life.of.Henrietta.Lacks.2017.1080p.BluRay.REMUX.AVC.DTS-HD.MA.5.1-FGT
  106. Language           : Spanish
  107. Default            : No
  108. Forced           : No

  109. Text #1
  110. ID             : 6
  111. Format           : PGS
  112. Muxing mode          : zlib
  113. Codec ID           : S_HDMV/PGS
  114. Codec ID/Info          : Picture based subtitle format used on BDs/HD-DVDs
  115. Title            : English-PGS
  116. Language           : English
  117. Default            : Yes
  118. Forced           : No

  119. Text #2
  120. ID             : 7
  121. Format           : PGS
  122. Muxing mode          : zlib
  123. Codec ID           : S_HDMV/PGS
  124. Codec ID/Info          : Picture based subtitle format used on BDs/HD-DVDs
  125. Title            : French-PGS
  126. Language           : French
  127. Default            : No
  128. Forced           : No

  129. Text #3
  130. ID             : 8
  131. Format           : PGS
  132. Muxing mode          : zlib
  133. Codec ID           : S_HDMV/PGS
  134. Codec ID/Info          : Picture based subtitle format used on BDs/HD-DVDs
  135. Title            : French-FORCED-PGS
  136. Language           : French
  137. Default            : No
  138. Forced           : No

  139. Text #4
  140. ID             : 9
  141. Format           : PGS
  142. Muxing mode          : zlib
  143. Codec ID           : S_HDMV/PGS
  144. Codec ID/Info          : Picture based subtitle format used on BDs/HD-DVDs
  145. Title            : Spanish-PGS
  146. Language           : Spanish
  147. Default            : No
  148. Forced           : No

  149. Text #5
  150. ID             : 10
  151. Format           : PGS
  152. Muxing mode          : zlib
  153. Codec ID           : S_HDMV/PGS
  154. Codec ID/Info          : Picture based subtitle format used on BDs/HD-DVDs
  155. Title            : Spanish-FORCED-PGS
  156. Language           : Spanish
  157. Default            : No
  158. Forced           : No

  159. Menu
  160. 00:00:00.000         : en:Chapter 01
  161. 00:04:30.979         : en:Chapter 02
  162. 00:11:06.082         : en:Chapter 03
  163. 00:19:02.349         : en:Chapter 04
  164. 00:27:13.423         : en:Chapter 05
  165. 00:35:14.779         : en:Chapter 06
  166. 00:45:03.951         : en:Chapter 07
  167. 00:55:05.719         : en:Chapter 08
  168. 01:04:23.192         : en:Chapter 09
  169. 01:14:34.428         : en:Chapter 10
  170. 01:21:44.190         : en:Chapter 11
  171. 01:28:50.366         : en:Chapter 12



复制代码
复制代码
113934go0c84o5b8msss8b.jpg 113934pcwx069wj98h62ah.jpg 113934p0hx6j80hxgz06xy.jpg 113934yenzed9c85uc5kbd.jpg 113935prrkl0db4u64ufj2.jpg 113935cyfbdo2yfn88v0yb.jpg

                                





回复

使用道具 举报

懒得打字嘛,点击右侧快捷回复 【右侧内容,后台自定义】
您需要登录后才可以回帖 登录 | 立即加入

本版积分规则

Archiver| |网站地图

Copyright © 2024 Comsenz Inc. Powered by 蓝光电影网

本站内容由用户自主分享和转载自互联网,转载目的在于传递更多信息,并不代表本网赞同其观点和对其真实性负责。

如有侵权、违反国家法律政策行为,请联系我们,我们会第一时间及时清除和处理!

举报反馈邮箱:4k1080.com@gmail.com

快速回复 返回顶部 返回列表