找回密码

查看: 2360|回复: 0

[喜剧] 新魅力四射:全球万人迷 Bring.It.On.Worldwide.Cheersmack.2017.1080p.BluRay.REMUX.AVC.DTS-HD.MA.5.1-FGT 26.51GB

[复制链接]
蓝光币
1992
发表于 2017-12-21 09:25:05 | 显示全部楼层 |阅读模式
114105i4z5h8ujdlxp14lh.jpg
◎译  名 新魅力四射:全球万人迷
◎片  名 新魅力四射:全球万人迷 Bring It On: Worldwide #Cheersmack
◎年  代 2017
◎国  家 美国
◎类  别 笑剧 / 恋爱 / 活动
◎语  言 英语
◎上映日期 2017-08-29(美国)
◎IMDb评分今朝无人评价
◎IMDb链接http://www.imdb.com/title/tt7014110/
◎豆瓣评分 今朝无人评价
◎豆瓣链接 https://movie.douban.com/subject/27118101/
◎片  长 无片长信息
◎导  演 Robert Adetuyi
◎主  演 薇薇卡·福克斯 Vivica A. Fox
      克里斯汀·佩罗斯派瑞 Cristine Prosperi
      乔丹·罗德里格斯 Jordan Rodrigues
      索菲·瓦瓦塞尔 Sophie Vavasseur
      Gia Lodge-O'Meally

◎简  介 

  Vivica A. Fox makes her Bring It On debut as Cheer Goddess, the Internet's most popular "Cheer-lebrity." When Destiny (Prosperi), captain of three-time national champions "The Rebels," is challenged to a global cheer showdown by an edgy new team called "The Truth," the Cheer Goddess organizes a virtual battle for squads from all around the world. It seems like the whole world wants to take down Destiny and her team, and they just might succeed, unless Destiny can rise to the challenge, set her ego aside and figure out who her real friends are.@www.lightyear.club



  1. Video
  2. ID             : 1
  3. Format           : AVC
  4. Format/Info          : Advanced Video Codec
  5. Format profile         : [email]High@L4.1[/email]
  6. Format settings, CABAC       : Yes
  7. Format settings, ReFrames      : 4 frames
  8. Format settings, GOP       : M=3, N=12
  9. Codec ID           : V_MPEG4/ISO/AVC
  10. Duration           : 1 h 35 min
  11. Bit rate mode          : Variable
  12. Maximum bit rate         : 35.0 Mb/s
  13. Width            : 1 920 pixels
  14. Height           : 1 080 pixels
  15. Display aspect ratio       : 16:9
  16. Frame rate mode        : Constant
  17. Frame rate           : 23.976 (24000/1001) FPS
  18. Color space          : YUV
  19. Chroma subsampling       : 4:2:0
  20. Bit depth          : 8 bits
  21. Scan type          : Progressive
  22. Title            : Bring.It.On.Worldwide.Cheersmack.2017.1080p.BluRay.REMUX.AVC.DTS-HD.MA.5.1-FGT
  23. Language           : English
  24. Default            : No
  25. Forced           : No

  26. Audio #1
  27. ID             : 2
  28. Format           : DTS
  29. Format/Info          : Digital Theater Systems
  30. Format profile         : MA / Core
  31. Mode             : 16
  32. Format settings, Endianness    : Big
  33. Codec ID           : A_DTS
  34. Duration           : 1 h 35 min
  35. Bit rate mode          : Variable / Constant
  36. Bit rate           : Unknown / 1 509 kb/s
  37. Channel(s)           : 6 channels
  38. Channel positions        : Front: L C R, Side: L R, LFE
  39. Sampling rate          : 48.0 kHz
  40. Frame rate           : 93.750 FPS (512 spf)
  41. Bit depth          : 24 bits
  42. Compression mode         : Lossless / Lossy
  43. Title            : Bring.It.On.Worldwide.Cheersmack.2017.1080p.BluRay.REMUX.AVC.DTS-HD.MA.5.1-FGT
  44. Language           : English
  45. Default            : Yes
  46. Forced           : No

  47. Audio #2
  48. ID             : 3
  49. Format           : DTS
  50. Format/Info          : Digital Theater Systems
  51. Mode             : 16
  52. Format settings, Endianness    : Big
  53. Codec ID           : A_DTS
  54. Duration           : 1 h 35 min
  55. Bit rate mode          : Constant
  56. Bit rate           : 1 509 kb/s
  57. Channel(s)           : 6 channels
  58. Channel positions        : Front: L C R, Side: L R, LFE
  59. Sampling rate          : 48.0 kHz
  60. Frame rate           : 93.750 FPS (512 spf)
  61. Bit depth          : 24 bits
  62. Compression mode         : Lossy
  63. Stream size          : 1.00GB (4%)
  64. Title            : Bring.It.On.Worldwide.Cheersmack.2017.1080p.BluRay.REMUX.AVC.DTS-HD.MA.5.1-FGT
  65. Language           : English
  66. Default            : No
  67. Forced           : No

  68. Audio #3
  69. ID             : 4
  70. Format           : DTS
  71. Format/Info          : Digital Theater Systems
  72. Mode             : 16
  73. Format settings, Endianness    : Big
  74. Codec ID           : A_DTS
  75. Duration           : 1 h 35 min
  76. Bit rate mode          : Constant
  77. Bit rate           : 768 kb/s
  78. Channel(s)           : 6 channels
  79. Channel positions        : Front: L C R, Side: L R, LFE
  80. Sampling rate          : 48.0 kHz
  81. Frame rate           : 93.750 FPS (512 spf)
  82. Bit depth          : 24 bits
  83. Compression mode         : Lossy
  84. Stream size          : 523 MiB (2%)
  85. Title            : Bring.It.On.Worldwide.Cheersmack.2017.1080p.BluRay.REMUX.AVC.DTS-HD.MA.5.1-FGT
  86. Language           : Spanish
  87. Default            : No
  88. Forced           : No

  89. Audio #4
  90. ID             : 5
  91. Format           : DTS
  92. Format/Info          : Digital Theater Systems
  93. Mode             : 16
  94. Format settings, Endianness    : Big
  95. Codec ID           : A_DTS
  96. Duration           : 1 h 35 min
  97. Bit rate mode          : Constant
  98. Bit rate           : 768 kb/s
  99. Channel(s)           : 6 channels
  100. Channel positions        : Front: L C R, Side: L R, LFE
  101. Sampling rate          : 48.0 kHz
  102. Frame rate           : 93.750 FPS (512 spf)
  103. Bit depth          : 24 bits
  104. Compression mode         : Lossy
  105. Stream size          : 523 MiB (2%)
  106. Title            : Bring.It.On.Worldwide.Cheersmack.2017.1080p.BluRay.REMUX.AVC.DTS-HD.MA.5.1-FGT
  107. Language           : French
  108. Default            : No
  109. Forced           : No

  110. Text #1
  111. ID             : 6
  112. Format           : PGS
  113. Muxing mode          : zlib
  114. Codec ID           : S_HDMV/PGS
  115. Codec ID/Info          : Picture based subtitle format used on BDs/HD-DVDs
  116. Language           : English
  117. Default            : Yes
  118. Forced           : No

  119. Text #2
  120. ID             : 7
  121. Format           : PGS
  122. Muxing mode          : zlib
  123. Codec ID           : S_HDMV/PGS
  124. Codec ID/Info          : Picture based subtitle format used on BDs/HD-DVDs
  125. Language           : Spanish
  126. Default            : No
  127. Forced           : No

  128. Text #3
  129. ID             : 8
  130. Format           : PGS
  131. Muxing mode          : zlib
  132. Codec ID           : S_HDMV/PGS
  133. Codec ID/Info          : Picture based subtitle format used on BDs/HD-DVDs
  134. Language           : French
  135. Default            : No
  136. Forced           : No

  137. Text #4
  138. ID             : 9
  139. Format           : PGS
  140. Muxing mode          : zlib
  141. Codec ID           : S_HDMV/PGS
  142. Codec ID/Info          : Picture based subtitle format used on BDs/HD-DVDs
  143. Language           : Spanish
  144. Default            : No
  145. Forced           : No

  146. Text #5
  147. ID             : 10
  148. Format           : PGS
  149. Muxing mode          : zlib
  150. Codec ID           : S_HDMV/PGS
  151. Codec ID/Info          : Picture based subtitle format used on BDs/HD-DVDs
  152. Language           : French
  153. Default            : No
  154. Forced           : No

  155. Menu
  156. 00:00:00.000         : en:Chapter 01
  157. 00:04:34.774         : en:Chapter 02
  158. 00:07:27.613         : en:Chapter 03
  159. 00:12:17.319         : en:Chapter 04
  160. 00:19:52.649         : en:Chapter 05
  161. 00:24:07.696         : en:Chapter 06
  162. 00:27:50.126         : en:Chapter 07
  163. 00:32:26.861         : en:Chapter 08
  164. 00:38:10.288         : en:Chapter 09
  165. 00:41:42.625         : en:Chapter 10
  166. 00:44:03.098         : en:Chapter 11
  167. 00:49:17.579         : en:Chapter 12
  168. 00:56:00.440         : en:Chapter 13
  169. 01:00:40.845         : en:Chapter 14
  170. 01:04:45.923         : en:Chapter 15
  171. 01:08:54.421         : en:Chapter 16
  172. 01:12:45.736         : en:Chapter 17
  173. 01:18:22.280         : en:Chapter 18
  174. 01:23:33.842         : en:Chapter 19
  175. 01:30:38.141         : en:Chapter 20



复制代码
复制代码
114105npu006zcmhdljnd4.jpg 114106tmdivaigdidn6ygd.jpg 114106t0a48cjjznocjnz7.jpg 114106u3he6unw3oxnuee4.jpg 114106xuza7fekc5xmckcz.jpg 114106lxbu05vduz0jbjsj.jpg








回复

使用道具 举报

懒得打字嘛,点击右侧快捷回复 【右侧内容,后台自定义】
您需要登录后才可以回帖 登录 | 立即加入

本版积分规则

Archiver| |网站地图

Copyright © 2024 Comsenz Inc. Powered by 蓝光电影网

本站内容由用户自主分享和转载自互联网,转载目的在于传递更多信息,并不代表本网赞同其观点和对其真实性负责。

如有侵权、违反国家法律政策行为,请联系我们,我们会第一时间及时清除和处理!

举报反馈邮箱:4k1080.com@gmail.com

快速回复 返回顶部 返回列表