找回密码

查看: 2491|回复: 0

[动画] 内裤队长/底底超人大电影 Captain.Underpants.The.First.Epic.Movie.2017.1080p.BluRay.REMUX.AVC.DTS-HD.MA.7.1-FGT 22.08GB

[复制链接]
蓝光币
1971
发表于 2017-12-21 09:26:43 | 显示全部楼层 |阅读模式
114323csigobspwb11b00a.jpg
◎译  名 内裤队长 / 底底超人大电影
◎片  名 内裤队长 Captain Underpants: The First Epic Movie
◎年  代 2017
◎国  家 美国
◎类  别 笑剧 / 行动 / 动画
◎语  言 英语
◎上映日期 2017-06-02(美国)
◎IMDb评分6.5/10 from 5,116 users
◎IMDb链接http://www.imdb.com/title/tt2091256/
◎豆瓣评分 5.7/10 from 235 users
◎豆瓣链接 https://movie.douban.com/subject/7065160/
◎片  长 89分钟
◎导  演 大卫·索伦
◎主  演 凯文·哈特 Kevin Hart
      托马斯·米德蒂奇 Thomas Middleditch
      艾德·赫尔姆斯 Ed Helms
      尼克·克罗尔 Nick Kroll
      乔丹·皮尔 Jordan Peele
      克里斯汀·沙尔 Kristen Schaal
      迪迪·雷斯彻 DeeDee Rescher
      布莱恩·波塞恩 Brian Posehn
      大卫·索伦 David Soren
      梅尔·罗德里格斯 Mel Rodriguez
      苏珊·菲泽 Susan Fitzer
      琳娜·泽格 Lynnanne Zager
      蒂凡妮·劳伦·本尼克 Tiffany Lauren Bennicke
      詹姆斯·瑞恩 James Ryan
      莱斯利·大卫·贝克 Leslie David Baker
      舒格·林·彼尔德 Sugar Lyn Beard
      莱斯利·尼科尔 Lesley Nicol
      克里斯·米勒 Chris Miller
      可可·索伦 Coco Soren

◎简  介 

  两个四年级门生乔治(凯文·哈特配音)和哈罗德(托马斯·米德蒂奇配音),经过催眠术将蛮横校长(艾迪·赫尔姆斯配音)酿成了内裤队长。



  1. Video
  2. ID             : 1
  3. Format           : AVC
  4. Format/Info          : Advanced Video Codec
  5. Format profile         : [email]High@L4.1[/email]
  6. Format settings, CABAC       : Yes
  7. Format settings, ReFrames      : 2 frames
  8. Codec ID           : V_MPEG4/ISO/AVC
  9. Duration           : 1 h 28 min
  10. Bit rate mode          : Variable
  11. Width            : 1 920 pixels
  12. Height           : 1 080 pixels
  13. Display aspect ratio       : 16:9
  14. Frame rate mode        : Constant
  15. Frame rate           : 23.976 (24000/1001) FPS
  16. Color space          : YUV
  17. Chroma subsampling       : 4:2:0
  18. Bit depth          : 8 bits
  19. Scan type          : Progressive
  20. Title            : Captain.Underpants.The.First.Epic.Movie.2017.1080p.BluRay.REMUX.AVC.DTS-HD.MA.5.1-FGT
  21. Language           : English
  22. Default            : No
  23. Forced           : No

  24. Audio #1
  25. ID             : 2
  26. Format           : DTS
  27. Format/Info          : Digital Theater Systems
  28. Format profile         : MA / ES Matrix / Core
  29. Mode             : 16
  30. Format settings, Endianness    : Big
  31. Codec ID           : A_DTS
  32. Duration           : 1 h 28 min
  33. Bit rate mode          : Variable / Constant / Constant
  34. Bit rate           : Unknown / 1 509 kb/s / 1 509 kb/s
  35. Channel(s)           : 8 channels / 7 channels / 6 channels
  36. Channel positions        : Front: L C R, Side: L R, Back: L R, LFE / Front: L C R, Side: L R, Back: C, LFE / Front: L C R, Side: L R, LFE
  37. Sampling rate          : 48.0 kHz
  38. Frame rate           : 93.750 FPS (512 spf)
  39. Bit depth          : 24 bits
  40. Compression mode         : Lossless / Lossy / Lossy
  41. Title            : Captain.Underpants.The.First.Epic.Movie.2017.1080p.BluRay.REMUX.AVC.DTS-HD.MA.5.1-FGT
  42. Language           : English
  43. Default            : Yes
  44. Forced           : No

  45. Audio #2
  46. ID             : 3
  47. Format           : DTS
  48. Format/Info          : Digital Theater Systems
  49. Format profile         : ES Matrix / Core
  50. Mode             : 16
  51. Format settings, Endianness    : Big
  52. Codec ID           : A_DTS
  53. Duration           : 1 h 28 min
  54. Bit rate mode          : Constant
  55. Bit rate           : 1 509 kb/s
  56. Channel(s)           : 7 channels / 6 channels
  57. Channel positions        : Front: L C R, Side: L R, Back: C, LFE / Front: L C R, Side: L R, LFE
  58. Sampling rate          : 48.0 kHz
  59. Frame rate           : 93.750 FPS (512 spf)
  60. Bit depth          : 24 bits
  61. Compression mode         : Lossy
  62. Stream size          : 957 MiB (4%)
  63. Title            : Captain.Underpants.The.First.Epic.Movie.2017.1080p.BluRay.REMUX.AVC.DTS-HD.MA.5.1-FGT
  64. Language           : English
  65. Default            : No
  66. Forced           : No

  67. Audio #3
  68. ID             : 4
  69. Format           : AC-3
  70. Format/Info          : Audio Coding 3
  71. Format settings, Endianness    : Big
  72. Codec ID           : A_AC3
  73. Duration           : 1 h 28 min
  74. Bit rate mode          : Constant
  75. Bit rate           : 448 kb/s
  76. Channel(s)           : 6 channels
  77. Channel positions        : Front: L C R, Side: L R, LFE
  78. Sampling rate          : 48.0 kHz
  79. Frame rate           : 31.250 FPS (1536 spf)
  80. Bit depth          : 16 bits
  81. Compression mode         : Lossy
  82. Stream size          : 284 MiB (1%)
  83. Title            : Captain.Underpants.The.First.Epic.Movie.2017.1080p.BluRay.REMUX.AVC.DTS-HD.MA.5.1-FGT
  84. Language           : English
  85. Service kind         : Complete Main
  86. Default            : No
  87. Forced           : No

  88. Audio #4
  89. ID             : 5
  90. Format           : AC-3
  91. Format/Info          : Audio Coding 3
  92. Format settings, Endianness    : Big
  93. Codec ID           : A_AC3
  94. Duration           : 1 h 28 min
  95. Bit rate mode          : Constant
  96. Bit rate           : 448 kb/s
  97. Channel(s)           : 6 channels
  98. Channel positions        : Front: L C R, Side: L R, LFE
  99. Sampling rate          : 48.0 kHz
  100. Frame rate           : 31.250 FPS (1536 spf)
  101. Bit depth          : 16 bits
  102. Compression mode         : Lossy
  103. Stream size          : 284 MiB (1%)
  104. Title            : Captain.Underpants.The.First.Epic.Movie.2017.1080p.BluRay.REMUX.AVC.DTS-HD.MA.5.1-FGT
  105. Language           : Spanish
  106. Service kind         : Complete Main
  107. Default            : No
  108. Forced           : No

  109. Audio #5
  110. ID             : 6
  111. Format           : AC-3
  112. Format/Info          : Audio Coding 3
  113. Format settings, Endianness    : Big
  114. Codec ID           : A_AC3
  115. Duration           : 1 h 28 min
  116. Bit rate mode          : Constant
  117. Bit rate           : 448 kb/s
  118. Channel(s)           : 6 channels
  119. Channel positions        : Front: L C R, Side: L R, LFE
  120. Sampling rate          : 48.0 kHz
  121. Frame rate           : 31.250 FPS (1536 spf)
  122. Bit depth          : 16 bits
  123. Compression mode         : Lossy
  124. Stream size          : 284 MiB (1%)
  125. Title            : Captain.Underpants.The.First.Epic.Movie.2017.1080p.BluRay.REMUX.AVC.DTS-HD.MA.5.1-FGT
  126. Language           : French
  127. Service kind         : Complete Main
  128. Default            : No
  129. Forced           : No

  130. Audio #6
  131. ID             : 7
  132. Format           : AC-3
  133. Format/Info          : Audio Coding 3
  134. Format settings, Endianness    : Big
  135. Codec ID           : A_AC3
  136. Duration           : 1 h 28 min
  137. Bit rate mode          : Constant
  138. Bit rate           : 448 kb/s
  139. Channel(s)           : 6 channels
  140. Channel positions        : Front: L C R, Side: L R, LFE
  141. Sampling rate          : 48.0 kHz
  142. Frame rate           : 31.250 FPS (1536 spf)
  143. Bit depth          : 16 bits
  144. Compression mode         : Lossy
  145. Stream size          : 284 MiB (1%)
  146. Title            : Captain.Underpants.The.First.Epic.Movie.2017.1080p.BluRay.REMUX.AVC.DTS-HD.MA.5.1-FGT
  147. Language           : Thai
  148. Service kind         : Complete Main
  149. Default            : No
  150. Forced           : No

  151. Text #1
  152. ID             : 8
  153. Format           : PGS
  154. Muxing mode          : zlib
  155. Codec ID           : S_HDMV/PGS
  156. Codec ID/Info          : Picture based subtitle format used on BDs/HD-DVDs
  157. Title            : English-PGS
  158. Language           : English
  159. Default            : Yes
  160. Forced           : No

  161. Text #2
  162. ID             : 9
  163. Format           : PGS
  164. Muxing mode          : zlib
  165. Codec ID           : S_HDMV/PGS
  166. Codec ID/Info          : Picture based subtitle format used on BDs/HD-DVDs
  167. Title            : Spanish-PGS
  168. Language           : Spanish
  169. Default            : No
  170. Forced           : No

  171. Text #3
  172. ID             : 10
  173. Format           : PGS
  174. Muxing mode          : zlib
  175. Codec ID           : S_HDMV/PGS
  176. Codec ID/Info          : Picture based subtitle format used on BDs/HD-DVDs
  177. Title            : Spanish-FORCED-PGS
  178. Language           : Spanish
  179. Default            : No
  180. Forced           : No

  181. Text #4
  182. ID             : 11
  183. Format           : PGS
  184. Muxing mode          : zlib
  185. Codec ID           : S_HDMV/PGS
  186. Codec ID/Info          : Picture based subtitle format used on BDs/HD-DVDs
  187. Title            : French-PGS
  188. Language           : French
  189. Default            : No
  190. Forced           : No

  191. Text #5
  192. ID             : 12
  193. Format           : PGS
  194. Muxing mode          : zlib
  195. Codec ID           : S_HDMV/PGS
  196. Codec ID/Info          : Picture based subtitle format used on BDs/HD-DVDs
  197. Title            : French-FORCED-PGS
  198. Language           : French
  199. Default            : No
  200. Forced           : No

  201. Text #6
  202. ID             : 13
  203. Format           : PGS
  204. Muxing mode          : zlib
  205. Codec ID           : S_HDMV/PGS
  206. Codec ID/Info          : Picture based subtitle format used on BDs/HD-DVDs
  207. Title            : Chinese-PGS
  208. Language           : Chinese
  209. Default            : No
  210. Forced           : No

  211. Text #7
  212. ID             : 14
  213. Format           : PGS
  214. Muxing mode          : zlib
  215. Codec ID           : S_HDMV/PGS
  216. Codec ID/Info          : Picture based subtitle format used on BDs/HD-DVDs
  217. Title            : Indonesian-PGS
  218. Language           : Indonesian
  219. Default            : No
  220. Forced           : No

  221. Text #8
  222. ID             : 15
  223. Format           : PGS
  224. Muxing mode          : zlib
  225. Codec ID           : S_HDMV/PGS
  226. Codec ID/Info          : Picture based subtitle format used on BDs/HD-DVDs
  227. Title            : Malay-PGS
  228. Language           : Malay
  229. Default            : No
  230. Forced           : No

  231. Text #9
  232. ID             : 16
  233. Format           : PGS
  234. Muxing mode          : zlib
  235. Codec ID           : S_HDMV/PGS
  236. Codec ID/Info          : Picture based subtitle format used on BDs/HD-DVDs
  237. Title            : Chinese-PGS
  238. Language           : Chinese
  239. Default            : No
  240. Forced           : No

  241. Text #10
  242. ID             : 17
  243. Format           : PGS
  244. Muxing mode          : zlib
  245. Codec ID           : S_HDMV/PGS
  246. Codec ID/Info          : Picture based subtitle format used on BDs/HD-DVDs
  247. Title            : Thai-PGS
  248. Language           : Thai
  249. Default            : No
  250. Forced           : No

  251. Text #11
  252. ID             : 18
  253. Format           : PGS
  254. Muxing mode          : zlib
  255. Codec ID           : S_HDMV/PGS
  256. Codec ID/Info          : Picture based subtitle format used on BDs/HD-DVDs
  257. Title            : Thai-FORCED-PGS
  258. Language           : Thai
  259. Default            : No
  260. Forced           : No

  261. Text #12
  262. ID             : 19
  263. Format           : PGS
  264. Muxing mode          : zlib
  265. Codec ID           : S_HDMV/PGS
  266. Codec ID/Info          : Picture based subtitle format used on BDs/HD-DVDs
  267. Title            : Vietnamese-PGS
  268. Language           : Vietnamese
  269. Default            : No
  270. Forced           : No

  271. Menu
  272. 00:00:00.000         : en:Chapter 01
  273. 00:03:54.359         : en:Chapter 02
  274. 00:06:58.793         : en:Chapter 03
  275. 00:10:08.441         : en:Chapter 04
  276. 00:12:58.652         : en:Chapter 05
  277. 00:15:08.657         : en:Chapter 06
  278. 00:17:44.813         : en:Chapter 07
  279. 00:20:42.616         : en:Chapter 08
  280. 00:23:44.923         : en:Chapter 09
  281. 00:25:44.501         : en:Chapter 10
  282. 00:29:25.972         : en:Chapter 11
  283. 00:33:55.658         : en:Chapter 12
  284. 00:38:24.135         : en:Chapter 13
  285. 00:42:09.944         : en:Chapter 14
  286. 00:46:12.060         : en:Chapter 15
  287. 00:52:17.801         : en:Chapter 16
  288. 00:55:02.757         : en:Chapter 17
  289. 00:57:37.328         : en:Chapter 18
  290. 01:00:57.445         : en:Chapter 19
  291. 01:04:29.866         : en:Chapter 20
  292. 01:08:24.934         : en:Chapter 21
  293. 01:11:42.089         : en:Chapter 22
  294. 01:15:44.373         : en:Chapter 23
  295. 01:19:02.946         : en:Chapter 24



复制代码
复制代码
114323w4pppgbpbbbmgbg4.jpg 114323o8xt8n5lzp95qs5i.jpg 114323cnxx1kngmn7znkgx.jpg 114324ozbshws1lqsb0l5i.jpg 114324plpekzgpmx9pepkp.jpg 114324mznjkv3jgvt181hg.jpg




回复

使用道具 举报

懒得打字嘛,点击右侧快捷回复 【右侧内容,后台自定义】
您需要登录后才可以回帖 登录 | 立即加入

本版积分规则

Archiver| |网站地图

Copyright © 2024 Comsenz Inc. Powered by 蓝光电影网

本站内容由用户自主分享和转载自互联网,转载目的在于传递更多信息,并不代表本网赞同其观点和对其真实性负责。

如有侵权、违反国家法律政策行为,请联系我们,我们会第一时间及时清除和处理!

举报反馈邮箱:4k1080.com@gmail.com

快速回复 返回顶部 返回列表