找回密码

查看: 2026|回复: 0

[喜剧] 创可贴 Band.Aid.2017.1080p.BluRay.REMUX.AVC.DTS-HD.MA.5.1-FGT 25.58GB

[复制链接]
蓝光币
1992
发表于 2017-12-21 09:27:27 | 显示全部楼层 |阅读模式
115016jxhhhxzeq444m8h8.jpg
◎译  名 创可贴
◎片  名 创可贴 Band Aid
◎年  代 2017
◎国  家 美国
◎类  别 笑剧
◎语  言 英语
◎上映日期 2017-01-24(圣丹斯电影节) / 2017-06-09(美国)
◎IMDb评分6.5/10 from 659 users
◎IMDb链接http://www.imdb.com/title/tt5816374/
◎豆瓣评分 今朝无人评价
◎豆瓣链接 https://movie.douban.com/subject/26928551/
◎片  长 91分钟
◎导  演 佐伊·利斯特·琼斯
◎主  演 布鲁克琳·黛克 Brooklyn Decker
      杰米·钟 Jamie Chung
      佐伊·利斯特·琼斯 Zoe Lister Jones
      科林·汉克斯 Colin Hanks
      埃瑞恩·海耶斯 Erinn Hayes
      汉娜·西蒙尼 Hannah Simone
      亚当·佩里 Adam Pally
      弗莱德·阿米森 Fred Armisen
      玛简德拉·黛芬诺 Majandra Delfino
      Susie Essman
      吉莲·珍塞尔 Gillian Zinser
      瑞塔 Retta
      克里斯·德埃利亚 Chris D'Elia
      拉维·帕特尔 Ravi Patel
      内尔森·富兰克林 Nelson Franklin

◎简  介 

  A couple who can't stop fighting embark on a last-ditch effort to save their marriage: turning their fights into songs and starting a band.



  1. Video
  2. ID             : 1
  3. Format           : AVC
  4. Format/Info          : Advanced Video Codec
  5. Format profile         : [email]High@L4.1[/email]
  6. Format settings, CABAC       : Yes
  7. Format settings, ReFrames      : 4 frames
  8. Codec ID           : V_MPEG4/ISO/AVC
  9. Duration           : 1 h 33 min
  10. Bit rate mode          : Variable
  11. Maximum bit rate         : 36.0 Mb/s
  12. Width            : 1 920 pixels
  13. Height           : 1 080 pixels
  14. Display aspect ratio       : 16:9
  15. Frame rate mode        : Constant
  16. Frame rate           : 23.976 (24000/1001) FPS
  17. Color space          : YUV
  18. Chroma subsampling       : 4:2:0
  19. Bit depth          : 8 bits
  20. Scan type          : Progressive
  21. Title            : Band.Aid.2017.1080p.BluRay.REMUX.AVC.DTS-HD.MA.5.1-FGT
  22. Language           : English
  23. Default            : No
  24. Forced           : No

  25. Audio #1
  26. ID             : 2
  27. Format           : DTS
  28. Format/Info          : Digital Theater Systems
  29. Format profile         : MA / Core
  30. Mode             : 16
  31. Format settings, Endianness    : Big
  32. Codec ID           : A_DTS
  33. Duration           : 1 h 33 min
  34. Bit rate mode          : Variable / Constant
  35. Bit rate           : Unknown / 1 509 kb/s
  36. Channel(s)           : 6 channels
  37. Channel positions        : Front: L C R, Side: L R, LFE
  38. Sampling rate          : 48.0 kHz
  39. Frame rate           : 93.750 FPS (512 spf)
  40. Bit depth          : 24 bits
  41. Compression mode         : Lossless / Lossy
  42. Title            : Band.Aid.2017.1080p.BluRay.REMUX.AVC.DTS-HD.MA.5.1-FGT
  43. Language           : English
  44. Default            : Yes
  45. Forced           : No

  46. Audio #2
  47. ID             : 3
  48. Format           : DTS
  49. Format/Info          : Digital Theater Systems
  50. Mode             : 16
  51. Format settings, Endianness    : Big
  52. Codec ID           : A_DTS
  53. Duration           : 1 h 33 min
  54. Bit rate mode          : Constant
  55. Bit rate           : 1 509 kb/s
  56. Channel(s)           : 6 channels
  57. Channel positions        : Front: L C R, Side: L R, LFE
  58. Sampling rate          : 48.0 kHz
  59. Frame rate           : 93.750 FPS (512 spf)
  60. Bit depth          : 24 bits
  61. Compression mode         : Lossy
  62. Stream size          : 1 012 MiB (4%)
  63. Title            : Band.Aid.2017.1080p.BluRay.REMUX.AVC.DTS-HD.MA.5.1-FGT
  64. Language           : English
  65. Default            : No
  66. Forced           : No

  67. Audio #3
  68. ID             : 4
  69. Format           : DTS
  70. Format/Info          : Digital Theater Systems
  71. Format profile         : MA / Core
  72. Mode             : 16
  73. Format settings, Endianness    : Big
  74. Codec ID           : A_DTS
  75. Duration           : 1 h 33 min
  76. Bit rate mode          : Variable / Constant
  77. Bit rate           : Unknown / 1 509 kb/s
  78. Channel(s)           : 2 channels
  79. Channel positions        : Front: L R
  80. Sampling rate          : 48.0 kHz
  81. Frame rate           : 93.750 FPS (512 spf)
  82. Bit depth          : 24 bits
  83. Compression mode         : Lossless / Lossy
  84. Title            : Band.Aid.2017.1080p.BluRay.REMUX.AVC.DTS-HD.MA.5.1-FGT
  85. Language           : English
  86. Default            : No
  87. Forced           : No

  88. Audio #4
  89. ID             : 5
  90. Format           : DTS
  91. Format/Info          : Digital Theater Systems
  92. Mode             : 16
  93. Format settings, Endianness    : Big
  94. Codec ID           : A_DTS
  95. Duration           : 1 h 33 min
  96. Bit rate mode          : Constant
  97. Bit rate           : 1 509 kb/s
  98. Channel(s)           : 2 channels
  99. Channel positions        : Front: L R
  100. Sampling rate          : 48.0 kHz
  101. Frame rate           : 93.750 FPS (512 spf)
  102. Bit depth          : 24 bits
  103. Compression mode         : Lossy
  104. Stream size          : 1 012 MiB (4%)
  105. Title            : Band.Aid.2017.1080p.BluRay.REMUX.AVC.DTS-HD.MA.5.1-FGT
  106. Language           : English
  107. Default            : No
  108. Forced           : No

  109. Text #1
  110. ID             : 6
  111. Format           : PGS
  112. Muxing mode          : zlib
  113. Codec ID           : S_HDMV/PGS
  114. Codec ID/Info          : Picture based subtitle format used on BDs/HD-DVDs
  115. Title            : English-PGS
  116. Language           : English
  117. Default            : Yes
  118. Forced           : No

  119. Text #2
  120. ID             : 7
  121. Format           : PGS
  122. Muxing mode          : zlib
  123. Codec ID           : S_HDMV/PGS
  124. Codec ID/Info          : Picture based subtitle format used on BDs/HD-DVDs
  125. Title            : Spanish-PGS
  126. Language           : Spanish
  127. Default            : No
  128. Forced           : No

  129. Menu
  130. 00:00:00.000         : en:Chapter 01
  131. 00:08:25.630         : en:Chapter 02
  132. 00:15:34.725         : en:Chapter 03
  133. 00:24:32.804         : en:Chapter 04
  134. 00:31:40.398         : en:Chapter 05
  135. 00:39:34.205         : en:Chapter 06
  136. 00:47:38.730         : en:Chapter 07
  137. 00:55:32.746         : en:Chapter 08
  138. 01:03:18.920         : en:Chapter 09
  139. 01:11:01.966         : en:Chapter 10
  140. 01:18:02.969         : en:Chapter 11
  141. 01:24:54.672         : en:Chapter 12



复制代码
复制代码
115016uwc55n0l0hi05lq5.jpg 115016d6pfss24rimpzf3a.jpg 115016btjs4kcxokposdjd.jpg 115016ukttthijhnsw4jhw.jpg 115016bqt1ttpttde6tv6t.jpg 115016a81x22999n80waz8.jpg

                                



回复

使用道具 举报

懒得打字嘛,点击右侧快捷回复 【右侧内容,后台自定义】
您需要登录后才可以回帖 登录 | 立即加入

本版积分规则

Archiver| |网站地图

Copyright © 2024 Comsenz Inc. Powered by 蓝光电影网

本站内容由用户自主分享和转载自互联网,转载目的在于传递更多信息,并不代表本网赞同其观点和对其真实性负责。

如有侵权、违反国家法律政策行为,请联系我们,我们会第一时间及时清除和处理!

举报反馈邮箱:4k1080.com@gmail.com

快速回复 返回顶部 返回列表