找回密码

查看: 5838|回复: 1

[奇幻] 新木乃伊/盗墓迷城 The.Mummy.2017.1080p.BluRay.REMUX.AVC.DTS-HD.MA.TrueHD.7.1.Atmos-FGT 30.64GB

[复制链接]
蓝光币
1971
发表于 2017-12-21 09:56:10 | 显示全部楼层 |阅读模式
115426qacjx6erca0xobxa.jpg
◎译  名 新木乃伊 / 盗墓迷城 / 神鬼传奇
◎片  名 新木乃伊 The Mummy
◎年  代 2017
◎国  家 美国
◎类  别 行动 / 奇异 / 冒险
◎语  言 英语
◎上映日期 2017-06-09(中国大陆/美国)
◎IMDb评分5.6/10 from 75,742 users
◎IMDb链接http://www.imdb.com/title/tt2345759/
◎豆瓣评分 4.8/10 from 63968 users
◎豆瓣链接 https://movie.douban.com/subject/20451290/
◎片  长 110分钟 / 106分钟(中国大陆)
◎导  演 艾里克斯·库兹曼
◎主  演 汤姆·克鲁斯 Tom Cruise
      罗素·克劳 Russell Crowe
      安娜贝拉·沃丽丝 Annabelle Wallis
      索菲亚·波多拉 Sofia Boutella
      杰克·约翰逊 Jake M. Johnson
      考特尼·万斯 Courtney B. Vance
      马尔万·肯扎里 Marwan Kenzari
      斯蒂芬·汤普森 Stephen Thompson
      詹姆斯·阿拉马 James Arama
      马修·威尔卡斯 Matthew Wilkas
      索姆·卡皮拉 Sohm Kapila
      肖恩·卡梅伦·迈克尔 Sean Cameron Michael
      雷兹·肯普顿 Rez Kempton
      尼尔·马斯克尔 Neil Maskell
      哈维尔·博泰特 Javier Botet
      帕克·索耶 Parker Sawyers

◎简  介 

  新版《木乃伊》报告了一个全新故事,木乃伊公主阿玛内特穿越到现代伦敦,诡计寻回她曾被夺去的一切。
  本片由行动巨星汤姆·克鲁斯主演。凭仗《王牌奸细》中的 “刀锋女”一角大热的新锐女星索菲亚·宝特拉饰演有庞大扑灭气力的木乃伊公主阿玛内特,而好莱坞著名硬汉男星罗素·克劳 也有出色表示。
  导演艾里克斯·库兹曼为好莱坞资深制片人,作品包括《惊天魔盗团》、 《星际迷航:暗黑无界》、《碟中谍3》等。
  据悉,影片将于克日公布全球首支官方预告片,届时将有更多出色场景呈献,并将发表更多奥秘剧情。该片北美估计2017年6月9 日上映。



  1. Video
  2. ID             : 1
  3. Format           : AVC
  4. Format/Info          : Advanced Video Codec
  5. Format profile         : [email]High@L4.1[/email]
  6. Format settings, CABAC       : Yes
  7. Format settings, ReFrames      : 4 frames
  8. Codec ID           : V_MPEG4/ISO/AVC
  9. Duration           : 1 h 50 min
  10. Bit rate mode          : Variable
  11. Maximum bit rate         : 35.0 Mb/s
  12. Width            : 1 920 pixels
  13. Height           : 1 080 pixels
  14. Display aspect ratio       : 16:9
  15. Frame rate mode        : Constant
  16. Frame rate           : 23.976 (24000/1001) FPS
  17. Color space          : YUV
  18. Chroma subsampling       : 4:2:0
  19. Bit depth          : 8 bits
  20. Scan type          : Progressive
  21. Title            : The.Mummy.2017.1080p.BluRay.REMUX.AVC.DTS-HD.MA.TrueHD.7.1.Atmos-FGT
  22. Language           : English
  23. Default            : No
  24. Forced           : No

  25. Audio #1
  26. ID             : 2
  27. Format           : DTS
  28. Format/Info          : Digital Theater Systems
  29. Format profile         : MA / Core
  30. Mode             : 16
  31. Format settings, Endianness    : Big
  32. Codec ID           : A_DTS
  33. Duration           : 1 h 50 min
  34. Bit rate mode          : Variable / Constant
  35. Bit rate           : Unknown / 1 509 kb/s
  36. Channel(s)           : 8 channels / 6 channels
  37. Channel positions        : Front: L C R, Side: L R, Back: L R, LFE / Front: L C R, Side: L R, LFE
  38. Sampling rate          : 48.0 kHz
  39. Frame rate           : 93.750 FPS (512 spf)
  40. Bit depth          : 24 bits
  41. Compression mode         : Lossless / Lossy
  42. Title            : The.Mummy.2017.1080p.BluRay.REMUX.AVC.DTS-HD.MA.TrueHD.7.1.Atmos-FGT
  43. Language           : English
  44. Default            : Yes
  45. Forced           : No

  46. Audio #2
  47. ID             : 3
  48. Format           : TrueHD
  49. Format profile         : TrueHD+Atmos / TrueHD
  50. Codec ID           : A_TRUEHD
  51. Bit rate mode          : Variable
  52. Maximum bit rate         : 8 133 kb/s
  53. Channel(s)           : Object Based / 8 channels
  54. Channel positions        : Object Based / Front: L C R, Side: L R, Back: L R, LFE
  55. Sampling rate          :/ 48.0 kHz
  56. Frame rate           : 1 200.000 FPS (40 spf)
  57. Compression mode         : Lossless
  58. Title            : The.Mummy.2017.1080p.BluRay.REMUX.AVC.DTS-HD.MA.TrueHD.7.1.Atmos-FGT
  59. Language           : English
  60. Default            : No
  61. Forced           : No

  62. Audio #3
  63. ID             : 4
  64. Format           : AC-3
  65. Format/Info          : Audio Coding 3
  66. Format settings, Endianness    : Big
  67. Codec ID           : A_AC3
  68. Duration           : 1 h 50 min
  69. Bit rate mode          : Constant
  70. Bit rate           : 640 kb/s
  71. Channel(s)           : 6 channels
  72. Channel positions        : Front: L C R, Side: L R, LFE
  73. Sampling rate          : 48.0 kHz
  74. Frame rate           : 31.250 FPS (1536 spf)
  75. Bit depth          : 16 bits
  76. Compression mode         : Lossy
  77. Stream size          : 504 MiB (2%)
  78. Title            : The.Mummy.2017.1080p.BluRay.REMUX.AVC.DTS-HD.MA.TrueHD.7.1.Atmos-FGT
  79. Language           : English
  80. Service kind         : Complete Main
  81. Default            : No
  82. Forced           : No

  83. Audio #4
  84. ID             : 5
  85. Format           : DTS
  86. Format/Info          : Digital Theater Systems
  87. Mode             : 16
  88. Format settings, Endianness    : Big
  89. Codec ID           : A_DTS
  90. Duration           : 1 h 50 min
  91. Bit rate mode          : Constant
  92. Bit rate           : 768 kb/s
  93. Channel(s)           : 6 channels
  94. Channel positions        : Front: L C R, Side: L R, LFE
  95. Sampling rate          : 48.0 kHz
  96. Frame rate           : 93.750 FPS (512 spf)
  97. Bit depth          : 24 bits
  98. Compression mode         : Lossy
  99. Stream size          : 605 MiB (2%)
  100. Title            : The.Mummy.2017.1080p.BluRay.REMUX.AVC.DTS-HD.MA.TrueHD.7.1.Atmos-FGT
  101. Language           : Spanish
  102. Default            : No
  103. Forced           : No

  104. Audio #5
  105. ID             : 6
  106. Format           : DTS
  107. Format/Info          : Digital Theater Systems
  108. Mode             : 16
  109. Format settings, Endianness    : Big
  110. Codec ID           : A_DTS
  111. Duration           : 1 h 50 min
  112. Bit rate mode          : Constant
  113. Bit rate           : 768 kb/s
  114. Channel(s)           : 6 channels
  115. Channel positions        : Front: L C R, Side: L R, LFE
  116. Sampling rate          : 48.0 kHz
  117. Frame rate           : 93.750 FPS (512 spf)
  118. Bit depth          : 24 bits
  119. Compression mode         : Lossy
  120. Stream size          : 605 MiB (2%)
  121. Title            : The.Mummy.2017.1080p.BluRay.REMUX.AVC.DTS-HD.MA.TrueHD.7.1.Atmos-FGT
  122. Language           : French
  123. Default            : No
  124. Forced           : No

  125. Audio #6
  126. ID             : 7
  127. Format           : AC-3
  128. Format/Info          : Audio Coding 3
  129. Mode             : Dolby Digital
  130. Format settings, Endianness    : Big
  131. Codec ID           : A_AC3
  132. Duration           : 1 h 50 min
  133. Bit rate mode          : Constant
  134. Bit rate           : 192 kb/s
  135. Channel(s)           : 2 channels
  136. Channel positions        : Front: L R
  137. Sampling rate          : 48.0 kHz
  138. Frame rate           : 31.250 FPS (1536 spf)
  139. Bit depth          : 16 bits
  140. Compression mode         : Lossy
  141. Stream size          : 151 MiB (0%)
  142. Title            : The.Mummy.2017.1080p.BluRay.REMUX.AVC.DTS-HD.MA.TrueHD.7.1.Atmos-FGT
  143. Language           : English
  144. Service kind         : Complete Main
  145. Default            : No
  146. Forced           : No

  147. Audio #7
  148. ID             : 8
  149. Format           : AC-3
  150. Format/Info          : Audio Coding 3
  151. Mode             : Dolby Digital
  152. Format settings, Endianness    : Big
  153. Codec ID           : A_AC3
  154. Duration           : 1 h 50 min
  155. Bit rate mode          : Constant
  156. Bit rate           : 192 kb/s
  157. Channel(s)           : 2 channels
  158. Channel positions        : Front: L R
  159. Sampling rate          : 48.0 kHz
  160. Frame rate           : 31.250 FPS (1536 spf)
  161. Bit depth          : 16 bits
  162. Compression mode         : Lossy
  163. Stream size          : 151 MiB (0%)
  164. Title            : The.Mummy.2017.1080p.BluRay.REMUX.AVC.DTS-HD.MA.TrueHD.7.1.Atmos-FGT
  165. Language           : English
  166. Service kind         : Complete Main
  167. Default            : No
  168. Forced           : No

  169. Text #1
  170. ID             : 9
  171. Format           : PGS
  172. Muxing mode          : zlib
  173. Codec ID           : S_HDMV/PGS
  174. Codec ID/Info          : Picture based subtitle format used on BDs/HD-DVDs
  175. Title            : English-PGS
  176. Language           : English
  177. Default            : Yes
  178. Forced           : No

  179. Text #2
  180. ID             : 10
  181. Format           : PGS
  182. Muxing mode          : zlib
  183. Codec ID           : S_HDMV/PGS
  184. Codec ID/Info          : Picture based subtitle format used on BDs/HD-DVDs
  185. Title            : Spanish-PGS
  186. Language           : Spanish
  187. Default            : No
  188. Forced           : No

  189. Text #3
  190. ID             : 11
  191. Format           : PGS
  192. Muxing mode          : zlib
  193. Codec ID           : S_HDMV/PGS
  194. Codec ID/Info          : Picture based subtitle format used on BDs/HD-DVDs
  195. Title            : French-PGS
  196. Language           : French
  197. Default            : No
  198. Forced           : No

  199. Text #4
  200. ID             : 12
  201. Format           : PGS
  202. Muxing mode          : zlib
  203. Codec ID           : S_HDMV/PGS
  204. Codec ID/Info          : Picture based subtitle format used on BDs/HD-DVDs
  205. Title            : Spanish-FORCED-PGS
  206. Language           : Spanish
  207. Default            : No
  208. Forced           : No

  209. Text #5
  210. ID             : 13
  211. Format           : PGS
  212. Muxing mode          : zlib
  213. Codec ID           : S_HDMV/PGS
  214. Codec ID/Info          : Picture based subtitle format used on BDs/HD-DVDs
  215. Title            : French-FORCED-PGS
  216. Language           : French
  217. Default            : No
  218. Forced           : No

  219. Menu
  220. 00:00:00.000         : en:Chapter 01
  221. 00:08:18.706         : en:Chapter 02
  222. 00:13:18.923         : en:Chapter 03
  223. 00:19:31.461         : en:Chapter 04
  224. 00:24:40.145         : en:Chapter 05
  225. 00:28:54.107         : en:Chapter 06
  226. 00:35:41.389         : en:Chapter 07
  227. 00:39:36.040         : en:Chapter 08
  228. 00:47:00.067         : en:Chapter 09
  229. 00:50:57.637         : en:Chapter 10
  230. 00:56:49.739         : en:Chapter 11
  231. 01:00:43.848         : en:Chapter 12
  232. 01:08:58.008         : en:Chapter 13
  233. 01:16:03.850         : en:Chapter 14
  234. 01:19:38.440         : en:Chapter 15
  235. 01:23:16.408         : en:Chapter 16
  236. 01:26:26.848         : en:Chapter 17
  237. 01:33:34.942         : en:Chapter 18
  238. 01:37:02.858         : en:Chapter 19
  239. 01:39:47.856         : en:Chapter 20



复制代码
复制代码
115426nhfvv52imcfb5w07.jpg 115426tkijtftt6fke6eyx.jpg 115427nru99su35u93qqos.jpg 115427rduugetdeudtmwdv.jpg 115427rxamdx50ldx1i2cm.jpg 115427hdjdiscadd3i1jdt.jpg





回复

使用道具 举报

蓝光币
138
发表于 2021-1-27 08:12:45 | 显示全部楼层

谢谢老板,辛苦了
回复

使用道具 举报

懒得打字嘛,点击右侧快捷回复 【右侧内容,后台自定义】
您需要登录后才可以回帖 登录 | 立即加入

本版积分规则

Archiver| |网站地图

Copyright © 2024 Comsenz Inc. Powered by 蓝光电影网

本站内容由用户自主分享和转载自互联网,转载目的在于传递更多信息,并不代表本网赞同其观点和对其真实性负责。

如有侵权、违反国家法律政策行为,请联系我们,我们会第一时间及时清除和处理!

举报反馈邮箱:4k1080.com@gmail.com

快速回复 返回顶部 返回列表