找回密码

查看: 2700|回复: 0

[恐怖] 黑夜造访/它在黑夜到访 It.Comes.at.Night.2017.1080p.BluRay.REMUX.AVC.DTS-HD.MA.5.1-FGT 16.72GB

[复制链接]
蓝光币
1992
发表于 2017-12-21 10:00:21 | 显示全部楼层 |阅读模式
122015zjpujxgx964g4en2.jpg
◎译  名 黑夜造访 / 它在黑夜到访
◎片  名 黑夜造访 It Comes at Night
◎年  代 2017
◎国  家 美国
◎类  别 悬疑 / 可骇
◎语  言 英语
◎上映日期 2017-04-29(Overlook电影节) / 2017-06-09(美国)
◎IMDb评分6.5/10 from 21,481 users
◎IMDb链接http://www.imdb.com/title/tt4695012/
◎豆瓣评分 5.8/10 from 652 users
◎豆瓣链接 https://movie.douban.com/subject/26815381/
◎片  长 91分钟
◎导  演 特里·爱德华·沙尔茨
◎主  演 乔尔·埃哲顿 Joel Edgerton
      克里斯托弗·阿波特 Christopher Abbott
      卡门·艾乔戈 Carmen Ejogo
      丽莉·克亚芙 Riley Keough
      小凯文·哈里森 Kelvin Harrison Jr.
      格里芬·罗伯特·福克纳 Griffin Robert Faulkner
      大卫·彭德尔顿 David Pendleton
      米奇 Mikey
      蔡斯·乔利埃特 Chase Joliet
      米克·奥罗克 Mick O'Rourke

◎简  介 

  故事发生在末日,病毒肆虐,凡是被传染的人都将被焚化,保罗一家人谨慎翼翼生活在森林里,忽然有一天一个不速之客的造访,让他们的生活天翻地覆....



  1. Video
  2. ID             : 1
  3. Format           : AVC
  4. Format/Info          : Advanced Video Codec
  5. Format profile         : [email]High@L4.1[/email]
  6. Format settings, CABAC       : Yes
  7. Format settings, ReFrames      : 4 frames
  8. Codec ID           : V_MPEG4/ISO/AVC
  9. Duration           : 1 h 31 min
  10. Bit rate mode          : Variable
  11. Maximum bit rate         : 37.0 Mb/s
  12. Width            : 1 920 pixels
  13. Height           : 1 080 pixels
  14. Display aspect ratio       : 16:9
  15. Frame rate mode        : Constant
  16. Frame rate           : 23.976 (24000/1001) FPS
  17. Color space          : YUV
  18. Chroma subsampling       : 4:2:0
  19. Bit depth          : 8 bits
  20. Scan type          : Progressive
  21. Title            : It.Comes.at.Night.2017.1080p.BluRay.REMUX.AVC.DTS-HD.MA.5.1-FGT
  22. Language           : English
  23. Default            : No
  24. Forced           : No

  25. Audio #1
  26. ID             : 2
  27. Format           : DTS
  28. Format/Info          : Digital Theater Systems
  29. Format profile         : MA / Core
  30. Mode             : 16
  31. Format settings, Endianness    : Big
  32. Codec ID           : A_DTS
  33. Duration           : 1 h 31 min
  34. Bit rate mode          : Variable / Constant
  35. Bit rate           : Unknown / 1 509 kb/s
  36. Channel(s)           : 6 channels
  37. Channel positions        : Front: L C R, Side: L R, LFE
  38. Sampling rate          : 48.0 kHz
  39. Frame rate           : 93.750 FPS (512 spf)
  40. Bit depth          : 24 bits
  41. Compression mode         : Lossless / Lossy
  42. Title            : It.Comes.at.Night.2017.1080p.BluRay.REMUX.AVC.DTS-HD.MA.5.1-FGT
  43. Language           : English
  44. Default            : Yes
  45. Forced           : No

  46. Audio #2
  47. ID             : 3
  48. Format           : DTS
  49. Format/Info          : Digital Theater Systems
  50. Mode             : 16
  51. Format settings, Endianness    : Big
  52. Codec ID           : A_DTS
  53. Duration           : 1 h 31 min
  54. Bit rate mode          : Constant
  55. Bit rate           : 1 509 kb/s
  56. Channel(s)           : 6 channels
  57. Channel positions        : Front: L C R, Side: L R, LFE
  58. Sampling rate          : 48.0 kHz
  59. Frame rate           : 93.750 FPS (512 spf)
  60. Bit depth          : 24 bits
  61. Compression mode         : Lossy
  62. Stream size          : 989 MiB (6%)
  63. Title            : It.Comes.at.Night.2017.1080p.BluRay.REMUX.AVC.DTS-HD.MA.5.1-FGT
  64. Language           : English
  65. Default            : No
  66. Forced           : No

  67. Audio #3
  68. ID             : 4
  69. Format           : AC-3
  70. Format/Info          : Audio Coding 3
  71. Format settings, Endianness    : Big
  72. Codec ID           : A_AC3
  73. Duration           : 1 h 31 min
  74. Bit rate mode          : Constant
  75. Bit rate           : 192 kb/s
  76. Channel(s)           : 2 channels
  77. Channel positions        : Front: L R
  78. Sampling rate          : 48.0 kHz
  79. Frame rate           : 31.250 FPS (1536 spf)
  80. Bit depth          : 16 bits
  81. Compression mode         : Lossy
  82. Stream size          : 126 MiB (1%)
  83. Title            : It.Comes.at.Night.2017.1080p.BluRay.REMUX.AVC.DTS-HD.MA.5.1-FGT
  84. Language           : English
  85. Service kind         : Complete Main
  86. Default            : No
  87. Forced           : No

  88. Text #1
  89. ID             : 5
  90. Format           : PGS
  91. Muxing mode          : zlib
  92. Codec ID           : S_HDMV/PGS
  93. Codec ID/Info          : Picture based subtitle format used on BDs/HD-DVDs
  94. Title            : English-PGS
  95. Language           : English
  96. Default            : Yes
  97. Forced           : No

  98. Text #2
  99. ID             : 6
  100. Format           : PGS
  101. Muxing mode          : zlib
  102. Codec ID           : S_HDMV/PGS
  103. Codec ID/Info          : Picture based subtitle format used on BDs/HD-DVDs
  104. Title            : Spanish-PGS
  105. Language           : Spanish
  106. Default            : No
  107. Forced           : No

  108. Menu
  109. 00:00:00.000         : en:Chapter 01
  110. 00:05:09.225         : en:Chapter 02
  111. 00:11:16.175         : en:Chapter 03
  112. 00:16:20.270         : en:Chapter 04
  113. 00:24:44.399         : en:Chapter 05
  114. 00:28:20.323         : en:Chapter 06
  115. 00:35:04.435         : en:Chapter 07
  116. 00:42:06.690         : en:Chapter 08
  117. 00:47:58.792         : en:Chapter 09
  118. 00:51:25.332         : en:Chapter 10
  119. 00:56:15.872         : en:Chapter 11
  120. 01:01:22.720         : en:Chapter 12
  121. 01:07:28.127         : en:Chapter 13
  122. 01:13:37.746         : en:Chapter 14
  123. 01:20:18.146         : en:Chapter 15
  124. 01:26:26.764         : en:Chapter 16



复制代码
复制代码
122015bd25ccvz9337zx92.jpg 122015h0zwtzb2c7e02ffi.jpg 122015alowxtuxwmlgwadd.jpg 122015rllko4lgllwkhwew.jpg 122015t2rnfn82dhyhxxud.jpg 122015bxd1yv56gpmmv4a1.jpg

                                


回复

使用道具 举报

懒得打字嘛,点击右侧快捷回复 【右侧内容,后台自定义】
您需要登录后才可以回帖 登录 | 立即加入

本版积分规则

Archiver| |网站地图

Copyright © 2024 Comsenz Inc. Powered by 蓝光电影网

本站内容由用户自主分享和转载自互联网,转载目的在于传递更多信息,并不代表本网赞同其观点和对其真实性负责。

如有侵权、违反国家法律政策行为,请联系我们,我们会第一时间及时清除和处理!

举报反馈邮箱:4k1080.com@gmail.com

快速回复 返回顶部 返回列表