找回密码

查看: 2401|回复: 1

[剧情] 食尸鬼 The.Ghoul.2016.1080p.BluRay.REMUX.AVC.DTS-HD.MA.5.1-FGT 19.99GB

[复制链接]
蓝光币
1984
发表于 2017-12-21 10:01:56 | 显示全部楼层 |阅读模式
122213wmzzd1aavcwpp4ug.jpg
◎译  名 食尸鬼
◎片  名 食尸鬼 The Ghoul
◎年  代 2016
◎国  家 英国
◎类  别 剧情 / 惊悚
◎语  言 英语
◎上映日期 2016-10-14(英国)
◎IMDb评分5.9/10 from 133 users
◎IMDb链接http://www.imdb.com/title/tt3613314/
◎豆瓣评分 今朝无人评价
◎豆瓣链接 https://movie.douban.com/subject/26928061/
◎片  长 81分钟
◎导  演 Gareth Tunley
◎主  演 汤姆·米滕 Tom Meeten
      爱丽丝·洛维 Alice Lowe
      鲁弗斯·琼斯 Rufus Jones
      妮雅姆·库萨克 Niamh Cusack
      Geoffrey McGivern
      James Eyres
      保罗·凯耶 Paul Kaye
      Waen Shepherd
      Dan Renton Skinner
      Rachel Stubbings

◎简  介 

  A homicide detective goes undercover as a patient to investigate a psychotherapist he believes is linked to a strange double murder. As his therapy sessions continue the line between fantasy and reality begins to blur.

◎获奖情况 

  第19届英国自力电影奖 (2016)
  最好摸索奖(提名)



  1. Video
  2. ID             : 1
  3. Format           : AVC
  4. Format/Info          : Advanced Video Codec
  5. Format profile         : [email]High@L4.1[/email]
  6. Format settings, CABAC       : Yes
  7. Format settings, ReFrames      : 4 frames
  8. Format settings, GOP       : M=3, N=24
  9. Codec ID           : V_MPEG4/ISO/AVC
  10. Duration           : 1 h 24 min
  11. Bit rate mode          : Variable
  12. Maximum bit rate         : 35.0 Mb/s
  13. Width            : 1 920 pixels
  14. Height           : 1 080 pixels
  15. Display aspect ratio       : 16:9
  16. Frame rate mode        : Constant
  17. Frame rate           : 24.000 FPS
  18. Standard           : NTSC
  19. Color space          : YUV
  20. Chroma subsampling       : 4:2:0
  21. Bit depth          : 8 bits
  22. Scan type          : Progressive
  23. Title            : The.Ghoul.2016.1080p.BluRay.REMUX.AVC.DTS-HD.MA.5.1-FGT
  24. Default            : Yes
  25. Forced           : No
  26. Color range          : Limited
  27. Color primaries        : BT.709
  28. Transfer characteristics     : BT.709
  29. Matrix coefficients        : BT.709

  30. Audio #1
  31. ID             : 2
  32. Format           : DTS
  33. Format/Info          : Digital Theater Systems
  34. Format profile         : MA / Core
  35. Mode             : 16
  36. Format settings, Endianness    : Big
  37. Codec ID           : A_DTS
  38. Duration           : 1 h 24 min
  39. Bit rate mode          : Variable / Constant
  40. Bit rate           : Unknown / 1 509 kb/s
  41. Channel(s)           : 6 channels
  42. Channel positions        : Front: L C R, Side: L R, LFE
  43. Sampling rate          : 48.0 kHz
  44. Frame rate           : 93.750 FPS (512 spf)
  45. Bit depth          : 16 bits
  46. Compression mode         : Lossless / Lossy
  47. Title            : The.Ghoul.2016.1080p.BluRay.REMUX.AVC.DTS-HD.MA.5.1-FGT
  48. Language           : English
  49. Default            : Yes
  50. Forced           : No

  51. Audio #2
  52. ID             : 3
  53. Format           : DTS
  54. Format/Info          : Digital Theater Systems
  55. Mode             : 16
  56. Format settings, Endianness    : Big
  57. Codec ID           : A_DTS
  58. Duration           : 1 h 24 min
  59. Bit rate mode          : Constant
  60. Bit rate           : 1 509 kb/s
  61. Channel(s)           : 6 channels
  62. Channel positions        : Front: L C R, Side: L R, LFE
  63. Sampling rate          : 48.0 kHz
  64. Frame rate           : 93.750 FPS (512 spf)
  65. Bit depth          : 16 bits
  66. Compression mode         : Lossy
  67. Stream size          : 917 MiB (4%)
  68. Title            : The.Ghoul.2016.1080p.BluRay.REMUX.AVC.DTS-HD.MA.5.1-FGT
  69. Language           : English
  70. Default            : No
  71. Forced           : No

  72. Audio #3
  73. ID             : 4
  74. Format           : AC-3
  75. Format/Info          : Audio Coding 3
  76. Format settings, Endianness    : Big
  77. Codec ID           : A_AC3
  78. Duration           : 1 h 24 min
  79. Bit rate mode          : Constant
  80. Bit rate           : 224 kb/s
  81. Channel(s)           : 2 channels
  82. Channel positions        : Front: L R
  83. Sampling rate          : 48.0 kHz
  84. Frame rate           : 31.250 FPS (1536 spf)
  85. Bit depth          : 16 bits
  86. Compression mode         : Lossy
  87. Stream size          : 136 MiB (1%)
  88. Title            : The.Ghoul.2016.1080p.BluRay.REMUX.AVC.DTS-HD.MA.5.1-FGT
  89. Language           : English
  90. Service kind         : Complete Main
  91. Default            : No
  92. Forced           : No

  93. Text
  94. ID             : 5
  95. Format           : PGS
  96. Muxing mode          : zlib
  97. Codec ID           : S_HDMV/PGS
  98. Codec ID/Info          : Picture based subtitle format used on BDs/HD-DVDs
  99. Title            : English-PGS
  100. Language           : English
  101. Default            : No
  102. Forced           : No

  103. Menu
  104. 00:00:00.000         : :Chapter 01
  105. 00:04:59.624         : :Chapter 02
  106. 00:09:17.374         : :Chapter 03
  107. 00:15:05.416         : :Chapter 04
  108. 00:23:48.374         : :Chapter 05
  109. 00:30:44.416         : :Chapter 06
  110. 00:41:57.833         : :Chapter 07
  111. 00:46:24.333         : :Chapter 08
  112. 00:53:48.791         : :Chapter 09
  113. 01:04:26.666         : :Chapter 10
  114. 01:13:49.249         : :Chapter 11
  115. 01:21:16.124         : :Chapter 12



复制代码
复制代码
122213ze47ee7n7g7z5n7i.jpg 122213ea6y9hxsr6v39co3.jpg 122213ftiwetkkp0axwvaw.jpg 122213isy6qcj80syi6oo0.jpg 122214yoswspy9ipvimymu.jpg 122214h466c6d6obu4dgc6.jpg





回复

使用道具 举报

懒得打字嘛,点击右侧快捷回复 【右侧内容,后台自定义】
您需要登录后才可以回帖 登录 | 立即加入

本版积分规则

Archiver| |网站地图

Copyright © 2024 Comsenz Inc. Powered by 蓝光电影网

本站内容由用户自主分享和转载自互联网,转载目的在于传递更多信息,并不代表本网赞同其观点和对其真实性负责。

如有侵权、违反国家法律政策行为,请联系我们,我们会第一时间及时清除和处理!

举报反馈邮箱:4k1080.com@gmail.com

快速回复 返回顶部 返回列表