找回密码

查看: 5672|回复: 1

[惊悚] 深海逃生/深海鲨机 47.Meters.Down.2017.1080p.BluRay.REMUX.AVC.DTS-HD.MA.5.1-FGT 19.57GB

[复制链接]
蓝光币
1971
发表于 2017-12-21 10:35:39 | 显示全部楼层 |阅读模式
122529exxafxpa11jjjq1u.jpg
◎译  名 深海逃生 / 深海鲨机 / 鲨海47米 / In the Deep
◎片  名 深海逃生 47 Meters Down
◎年  代 2016
◎国  家 英国 / 美国 / 多米尼加
◎类  别 惊悚 / 可骇
◎语  言 英语
◎上映日期 2016-10-20(希腊) / 2017-06-16(美国) / 2017-07-28(英国)
◎IMDb评分5.8/10 from 14,128 users
◎IMDb链接http://www.imdb.com/title/tt2932536/
◎豆瓣评分 6.4/10 from 2930 users
◎豆瓣链接 https://movie.douban.com/subject/26845362/
◎片  长 89分钟
◎导  演 约翰内斯·罗伯茨
◎主  演 曼迪·摩尔 Mandy Moore
      克莱尔·霍尔特 Claire Holt
      克里斯·J.约翰逊 Chris J. Johnson
      雅尼·吉尔曼 Yani Gellman
      圣地亚哥·瑟甘拉 Santiago Segura
      马修·莫迪恩 Matthew Modine

◎简  介 

  一对姐妹正在墨西哥海岸度假。她们在潜水时被海底一个水下鲨鱼观察笼困住。由于所存氧气不多,她们只要一个小时的时候逃走牢笼回到水面...



  1. Video
  2. ID             : 1
  3. Format           : AVC
  4. Format/Info          : Advanced Video Codec
  5. Format profile         : [email]High@L4.1[/email]
  6. Format settings, CABAC       : Yes
  7. Format settings, ReFrames      : 4 frames
  8. Codec ID           : V_MPEG4/ISO/AVC
  9. Duration           : 1 h 29 min
  10. Bit rate mode          : Variable
  11. Maximum bit rate         : 37.0 Mb/s
  12. Width            : 1 920 pixels
  13. Height           : 1 080 pixels
  14. Display aspect ratio       : 16:9
  15. Frame rate mode        : Constant
  16. Frame rate           : 23.976 (24000/1001) FPS
  17. Color space          : YUV
  18. Chroma subsampling       : 4:2:0
  19. Bit depth          : 8 bits
  20. Scan type          : Progressive
  21. Title            : 47.Meters.Down.2017.1080p.BluRay.REMUX.AVC.DTS-HD.MA.5.1-FGT
  22. Language           : English
  23. Default            : No
  24. Forced           : No

  25. Audio #1
  26. ID             : 2
  27. Format           : DTS
  28. Format/Info          : Digital Theater Systems
  29. Format profile         : MA / Core
  30. Mode             : 16
  31. Format settings, Endianness    : Big
  32. Codec ID           : A_DTS
  33. Duration           : 1 h 29 min
  34. Bit rate mode          : Variable / Constant
  35. Bit rate           : Unknown / 1 509 kb/s
  36. Channel(s)           : 6 channels
  37. Channel positions        : Front: L C R, Side: L R, LFE
  38. Sampling rate          : 48.0 kHz
  39. Frame rate           : 93.750 FPS (512 spf)
  40. Bit depth          : 24 bits
  41. Compression mode         : Lossless / Lossy
  42. Title            : 47.Meters.Down.2017.1080p.BluRay.REMUX.AVC.DTS-HD.MA.5.1-FGT
  43. Language           : English
  44. Default            : Yes
  45. Forced           : No

  46. Audio #2
  47. ID             : 3
  48. Format           : DTS
  49. Format/Info          : Digital Theater Systems
  50. Mode             : 16
  51. Format settings, Endianness    : Big
  52. Codec ID           : A_DTS
  53. Duration           : 1 h 29 min
  54. Bit rate mode          : Constant
  55. Bit rate           : 1 509 kb/s
  56. Channel(s)           : 6 channels
  57. Channel positions        : Front: L C R, Side: L R, LFE
  58. Sampling rate          : 48.0 kHz
  59. Frame rate           : 93.750 FPS (512 spf)
  60. Bit depth          : 24 bits
  61. Compression mode         : Lossy
  62. Stream size          : 964 MiB (5%)
  63. Title            : 47.Meters.Down.2017.1080p.BluRay.REMUX.AVC.DTS-HD.MA.5.1-FGT
  64. Language           : English
  65. Default            : No
  66. Forced           : No

  67. Audio #3
  68. ID             : 4
  69. Format           : AC-3
  70. Format/Info          : Audio Coding 3
  71. Mode             : Dolby Digital
  72. Format settings, Endianness    : Big
  73. Codec ID           : A_AC3
  74. Duration           : 1 h 29 min
  75. Bit rate mode          : Constant
  76. Bit rate           : 192 kb/s
  77. Channel(s)           : 2 channels
  78. Channel positions        : Front: L R
  79. Sampling rate          : 48.0 kHz
  80. Frame rate           : 31.250 FPS (1536 spf)
  81. Bit depth          : 16 bits
  82. Compression mode         : Lossy
  83. Stream size          : 123 MiB (1%)
  84. Title            : 47.Meters.Down.2017.1080p.BluRay.REMUX.AVC.DTS-HD.MA.5.1-FGT
  85. Language           : English
  86. Service kind         : Complete Main
  87. Default            : No
  88. Forced           : No

  89. Text #1
  90. ID             : 5
  91. Format           : PGS
  92. Muxing mode          : zlib
  93. Codec ID           : S_HDMV/PGS
  94. Codec ID/Info          : Picture based subtitle format used on BDs/HD-DVDs
  95. Title            : English-PGS
  96. Language           : English
  97. Default            : Yes
  98. Forced           : No

  99. Text #2
  100. ID             : 6
  101. Format           : PGS
  102. Muxing mode          : zlib
  103. Codec ID           : S_HDMV/PGS
  104. Codec ID/Info          : Picture based subtitle format used on BDs/HD-DVDs
  105. Title            : Spanish-PGS
  106. Language           : Spanish
  107. Default            : No
  108. Forced           : No

  109. Menu
  110. 00:00:00.000         : en:Chapter 01
  111. 00:06:36.229         : en:Chapter 02
  112. 00:10:12.945         : en:Chapter 03
  113. 00:16:08.467         : en:Chapter 04
  114. 00:20:51.333         : en:Chapter 05
  115. 00:27:36.529         : en:Chapter 06
  116. 00:31:37.770         : en:Chapter 07
  117. 00:36:18.968         : en:Chapter 08
  118. 00:42:00.684         : en:Chapter 09
  119. 00:46:39.004         : en:Chapter 10
  120. 00:52:06.414         : en:Chapter 11
  121. 00:57:23.940         : en:Chapter 12
  122. 01:02:45.553         : en:Chapter 13
  123. 01:07:36.719         : en:Chapter 14
  124. 01:13:12.846         : en:Chapter 15
  125. 01:18:09.935         : en:Chapter 16



复制代码
复制代码
122529oaz27adbtqqqa5k5.jpg 122529yqecddd8cl4alh0f.jpg 122529xb44ja8o4afb944j.jpg 122529dbbj2djmauemuj20.jpg 122529cvqmjfhsql1vluzs.jpg 122529rs1km4nmuin0sxz1.jpg

                                


回复

使用道具 举报

蓝光币
245
发表于 2018-1-7 15:25:24 | 显示全部楼层
谢谢楼主分享精彩影片
回复

使用道具 举报

懒得打字嘛,点击右侧快捷回复 【右侧内容,后台自定义】
您需要登录后才可以回帖 登录 | 立即加入

本版积分规则

Archiver| |网站地图

Copyright © 2024 Comsenz Inc. Powered by 蓝光电影网

本站内容由用户自主分享和转载自互联网,转载目的在于传递更多信息,并不代表本网赞同其观点和对其真实性负责。

如有侵权、违反国家法律政策行为,请联系我们,我们会第一时间及时清除和处理!

举报反馈邮箱:4k1080.com@gmail.com

快速回复 返回顶部 返回列表