找回密码

查看: 14325|回复: 5

[科幻] 变形金刚5:最后的骑士 Transformers.The.Last.Knight.2017.1080p.BluRay.REMUX.AVC.DTS-HD.MA.TrueHD.7.1.Atmos-FGT 43.34GB

[复制链接]
蓝光币
1982
发表于 2017-12-21 10:38:13 | 显示全部楼层 |阅读模式
122741kggxoxr4omx48xx3.jpg
◎译  名 变形金刚5:最初的骑士 / 变形金刚:终极战士 / 变形金刚5:终极骑士 / 变形金刚5 / 变5 / Transformers 5
◎片  名 变形金刚5:最初的骑士 Transformers: The Last Knight
◎年  代 2017
◎国  家 美国
◎类  别 行动 / 科幻
◎语  言 英语
◎上映日期 2017-06-23(中国大陆) / 2017-06-21(美国)
◎IMDb评分5.2/10 from 52,152 users
◎IMDb链接http://www.imdb.com/title/tt3371366/
◎豆瓣评分 4.8/10 from 108414 users
◎豆瓣链接 https://movie.douban.com/subject/25824686/
◎片  长 149分钟 / 150分钟(中国大陆)
◎导  演 迈克尔·贝
◎主  演 马克·沃尔伯格 Mark Wahlberg
      伊莎贝拉·莫奈 Isabela Moner
      劳拉·哈德克 Laura Haddock
      安东尼·霍普金斯 Anthony Hopkins
      乔什·杜哈明 Josh Duhamel
      彼特·库伦 Peter Cullen
      约翰·古德曼 John Goodman
      斯坦利·图齐 Stanley Tucci
      桑地亚哥·卡布瑞拉 Santiago Cabrera
      吉尔·伯明翰 Gil Birmingham
      渡边谦 Ken Watanabe
      约翰·迪·玛吉欧 John Di Maggio
      弗兰克·维尔克 Frank Welker
      米彻·佩勒吉 Mitch Pileggi

◎简  介 

  地球堕入扑灭危机,擎天柱失落,越来越多的汽车人和霸天虎来到地球,前海豹突击队成员威廉·伦诺克斯( 乔什·杜哈明饰)成为了政府军组建的TRF中的一员,负责绞杀地球上的汽车人——非论黑白。在芝加哥陌头,伦诺克斯碰到了凯德·伊格尔(马克·沃尔伯格饰)孤儿伊莎贝拉(伊莎贝拉·莫奈饰)。 凯德由于帮助、支持汽车人而成为政府通缉犯,所以他在一个渣滓场看管着一群幸存的汽车人。与此同时,失落的擎天柱被女巫昆塔莎黑化,要扑灭地球。拯救天下的义务因而落在了这支由凯德为首的非同平常的队伍身上,大黄蜂、一位英国爵士(安东尼·霍普金斯饰)还有一位牛津大学教授(劳拉·哈德克饰),一场史诗浩劫完全将地球酿成了疆场 。



  1. Video
  2. ID             : 1
  3. Format           : AVC
  4. Format/Info          : Advanced Video Codec
  5. Format profile         : [email]High@L4.1[/email]
  6. Format settings, CABAC       : Yes
  7. Format settings, ReFrames      : 4 frames
  8. Codec ID           : V_MPEG4/ISO/AVC
  9. Duration           : 2 h 34 min
  10. Bit rate mode          : Variable
  11. Maximum bit rate         : 31.0 Mb/s
  12. Width            : 1 920 pixels
  13. Height           : 1 080 pixels
  14. Display aspect ratio       : 16:9
  15. Frame rate mode        : Constant
  16. Frame rate           : 23.976 (24000/1001) FPS
  17. Color space          : YUV
  18. Chroma subsampling       : 4:2:0
  19. Bit depth          : 8 bits
  20. Scan type          : Progressive
  21. Title            : Transformers.The.Last.Knight.2017.1080p.BluRay.REMUX.AVC.DTS-HD.MA.TrueHD.7.1.Atmos-FGT
  22. Language           : English
  23. Default            : No
  24. Forced           : No

  25. Audio #1
  26. ID             : 2
  27. Format           : TrueHD
  28. Format profile         : TrueHD+Atmos / TrueHD
  29. Codec ID           : A_TRUEHD
  30. Bit rate mode          : Variable
  31. Maximum bit rate         : 6 528 kb/s
  32. Channel(s)           : Object Based / 8 channels
  33. Channel positions        : Object Based / Front: L C R, Side: L R, Back: L R, LFE
  34. Sampling rate          :/ 48.0 kHz
  35. Frame rate           : 1 200.000 FPS (40 spf)
  36. Compression mode         : Lossless
  37. Title            : Transformers.The.Last.Knight.2017.1080p.BluRay.REMUX.AVC.DTS-HD.MA.TrueHD.7.1.Atmos-FGT
  38. Language           : English
  39. Default            : Yes
  40. Forced           : No

  41. Audio #2
  42. ID             : 3
  43. Format           : DTS
  44. Format/Info          : Digital Theater Systems
  45. Format profile         : MA / Core
  46. Mode             : 16
  47. Format settings, Endianness    : Big
  48. Codec ID           : A_DTS
  49. Duration           : 2 h 34 min
  50. Bit rate mode          : Variable / Constant
  51. Bit rate           : Unknown / 1 509 kb/s
  52. Channel(s)           : 8 channels / 6 channels
  53. Channel positions        : Front: L C R, Side: L R, Back: L R, LFE / Front: L C R, Side: L R, LFE
  54. Sampling rate          : 48.0 kHz
  55. Frame rate           : 93.750 FPS (512 spf)
  56. Bit depth          : 24 bits
  57. Compression mode         : Lossless / Lossy
  58. Title            : Transformers.The.Last.Knight.2017.1080p.BluRay.REMUX.AVC.DTS-HD.MA.TrueHD.7.1.Atmos-FGT
  59. Language           : English
  60. Default            : No
  61. Forced           : No

  62. Audio #3
  63. ID             : 4
  64. Format           : AC-3
  65. Format/Info          : Audio Coding 3
  66. Format settings, Endianness    : Big
  67. Codec ID           : A_AC3
  68. Duration           : 2 h 34 min
  69. Bit rate mode          : Constant
  70. Bit rate           : 640 kb/s
  71. Channel(s)           : 6 channels
  72. Channel positions        : Front: L C R, Side: L R, LFE
  73. Sampling rate          : 48.0 kHz
  74. Frame rate           : 31.250 FPS (1536 spf)
  75. Bit depth          : 16 bits
  76. Compression mode         : Lossy
  77. Stream size          : 708 MiB (2%)
  78. Title            : Transformers.The.Last.Knight.2017.1080p.BluRay.REMUX.AVC.DTS-HD.MA.TrueHD.7.1.Atmos-FGT
  79. Language           : English
  80. Service kind         : Complete Main
  81. Default            : No
  82. Forced           : No

  83. Audio #4
  84. ID             : 5
  85. Format           : AC-3
  86. Format/Info          : Audio Coding 3
  87. Format settings, Endianness    : Big
  88. Codec ID           : A_AC3
  89. Duration           : 2 h 34 min
  90. Bit rate mode          : Constant
  91. Bit rate           : 640 kb/s
  92. Channel(s)           : 6 channels
  93. Channel positions        : Front: L C R, Side: L R, LFE
  94. Sampling rate          : 48.0 kHz
  95. Frame rate           : 31.250 FPS (1536 spf)
  96. Bit depth          : 16 bits
  97. Compression mode         : Lossy
  98. Stream size          : 708 MiB (2%)
  99. Title            : Transformers.The.Last.Knight.2017.1080p.BluRay.REMUX.AVC.DTS-HD.MA.TrueHD.7.1.Atmos-FGT
  100. Language           : English
  101. Service kind         : Complete Main
  102. Default            : No
  103. Forced           : No

  104. Audio #5
  105. ID             : 6
  106. Format           : AC-3
  107. Format/Info          : Audio Coding 3
  108. Mode             : Dolby Digital
  109. Format settings, Endianness    : Big
  110. Codec ID           : A_AC3
  111. Duration           : 2 h 34 min
  112. Bit rate mode          : Constant
  113. Bit rate           : 224 kb/s
  114. Channel(s)           : 2 channels
  115. Channel positions        : Front: L R
  116. Sampling rate          : 48.0 kHz
  117. Frame rate           : 31.250 FPS (1536 spf)
  118. Bit depth          : 16 bits
  119. Compression mode         : Lossy
  120. Stream size          : 248 MiB (1%)
  121. Title            : Transformers.The.Last.Knight.2017.1080p.BluRay.REMUX.AVC.DTS-HD.MA.TrueHD.7.1.Atmos-FGT
  122. Language           : English
  123. Service kind         : Complete Main
  124. Default            : No
  125. Forced           : No

  126. Audio #6
  127. ID             : 7
  128. Format           : AC-3
  129. Format/Info          : Audio Coding 3
  130. Format settings, Endianness    : Big
  131. Codec ID           : A_AC3
  132. Duration           : 2 h 34 min
  133. Bit rate mode          : Constant
  134. Bit rate           : 640 kb/s
  135. Channel(s)           : 6 channels
  136. Channel positions        : Front: L C R, Side: L R, LFE
  137. Sampling rate          : 48.0 kHz
  138. Frame rate           : 31.250 FPS (1536 spf)
  139. Bit depth          : 16 bits
  140. Compression mode         : Lossy
  141. Stream size          : 708 MiB (2%)
  142. Title            : Transformers.The.Last.Knight.2017.1080p.BluRay.REMUX.AVC.DTS-HD.MA.TrueHD.7.1.Atmos-FGT
  143. Language           : French
  144. Service kind         : Complete Main
  145. Default            : No
  146. Forced           : No

  147. Audio #7
  148. ID             : 8
  149. Format           : AC-3
  150. Format/Info          : Audio Coding 3
  151. Format settings, Endianness    : Big
  152. Codec ID           : A_AC3
  153. Duration           : 2 h 34 min
  154. Bit rate mode          : Constant
  155. Bit rate           : 640 kb/s
  156. Channel(s)           : 6 channels
  157. Channel positions        : Front: L C R, Side: L R, LFE
  158. Sampling rate          : 48.0 kHz
  159. Frame rate           : 31.250 FPS (1536 spf)
  160. Bit depth          : 16 bits
  161. Compression mode         : Lossy
  162. Stream size          : 708 MiB (2%)
  163. Title            : Transformers.The.Last.Knight.2017.1080p.BluRay.REMUX.AVC.DTS-HD.MA.TrueHD.7.1.Atmos-FGT
  164. Language           : Spanish
  165. Service kind         : Complete Main
  166. Default            : No
  167. Forced           : No

  168. Audio #8
  169. ID             : 9
  170. Format           : AC-3
  171. Format/Info          : Audio Coding 3
  172. Format settings, Endianness    : Big
  173. Codec ID           : A_AC3
  174. Duration           : 2 h 34 min
  175. Bit rate mode          : Constant
  176. Bit rate           : 640 kb/s
  177. Channel(s)           : 6 channels
  178. Channel positions        : Front: L C R, Side: L R, LFE
  179. Sampling rate          : 48.0 kHz
  180. Frame rate           : 31.250 FPS (1536 spf)
  181. Bit depth          : 16 bits
  182. Compression mode         : Lossy
  183. Stream size          : 708 MiB (2%)
  184. Title            : Transformers.The.Last.Knight.2017.1080p.BluRay.REMUX.AVC.DTS-HD.MA.TrueHD.7.1.Atmos-FGT
  185. Language           : Portuguese
  186. Service kind         : Complete Main
  187. Default            : No
  188. Forced           : No

  189. Audio #9
  190. ID             : 10
  191. Format           : AC-3
  192. Format/Info          : Audio Coding 3
  193. Format settings, Endianness    : Big
  194. Codec ID           : A_AC3
  195. Duration           : 2 h 34 min
  196. Bit rate mode          : Constant
  197. Bit rate           : 640 kb/s
  198. Channel(s)           : 6 channels
  199. Channel positions        : Front: L C R, Side: L R, LFE
  200. Sampling rate          : 48.0 kHz
  201. Frame rate           : 31.250 FPS (1536 spf)
  202. Bit depth          : 16 bits
  203. Compression mode         : Lossy
  204. Stream size          : 708 MiB (2%)
  205. Title            : Transformers.The.Last.Knight.2017.1080p.BluRay.REMUX.AVC.DTS-HD.MA.TrueHD.7.1.Atmos-FGT
  206. Language           : English
  207. Service kind         : Complete Main
  208. Default            : No
  209. Forced           : No

  210. Text #1
  211. ID             : 11
  212. Format           : PGS
  213. Muxing mode          : zlib
  214. Codec ID           : S_HDMV/PGS
  215. Codec ID/Info          : Picture based subtitle format used on BDs/HD-DVDs
  216. Title            : English-PGS
  217. Language           : English
  218. Default            : Yes
  219. Forced           : No

  220. Text #2
  221. ID             : 12
  222. Format           : PGS
  223. Muxing mode          : zlib
  224. Codec ID           : S_HDMV/PGS
  225. Codec ID/Info          : Picture based subtitle format used on BDs/HD-DVDs
  226. Title            : English-SDH-PGS
  227. Language           : English
  228. Default            : No
  229. Forced           : No

  230. Text #3
  231. ID             : 13
  232. Format           : PGS
  233. Muxing mode          : zlib
  234. Codec ID           : S_HDMV/PGS
  235. Codec ID/Info          : Picture based subtitle format used on BDs/HD-DVDs
  236. Title            : French-PGS
  237. Language           : French
  238. Default            : No
  239. Forced           : No

  240. Text #4
  241. ID             : 14
  242. Format           : PGS
  243. Muxing mode          : zlib
  244. Codec ID           : S_HDMV/PGS
  245. Codec ID/Info          : Picture based subtitle format used on BDs/HD-DVDs
  246. Title            : French-FORCED-PGS
  247. Language           : French
  248. Default            : No
  249. Forced           : No

  250. Text #5
  251. ID             : 15
  252. Format           : PGS
  253. Muxing mode          : zlib
  254. Codec ID           : S_HDMV/PGS
  255. Codec ID/Info          : Picture based subtitle format used on BDs/HD-DVDs
  256. Title            : Spanish-PGS
  257. Language           : Spanish
  258. Default            : No
  259. Forced           : No

  260. Text #6
  261. ID             : 16
  262. Format           : PGS
  263. Muxing mode          : zlib
  264. Codec ID           : S_HDMV/PGS
  265. Codec ID/Info          : Picture based subtitle format used on BDs/HD-DVDs
  266. Title            : Spanish-FORCED-PGS
  267. Language           : Spanish
  268. Default            : No
  269. Forced           : No

  270. Text #7
  271. ID             : 17
  272. Format           : PGS
  273. Muxing mode          : zlib
  274. Codec ID           : S_HDMV/PGS
  275. Codec ID/Info          : Picture based subtitle format used on BDs/HD-DVDs
  276. Title            : Portuguese-PGS
  277. Language           : Portuguese
  278. Default            : No
  279. Forced           : No

  280. Text #8
  281. ID             : 18
  282. Format           : PGS
  283. Muxing mode          : zlib
  284. Codec ID           : S_HDMV/PGS
  285. Codec ID/Info          : Picture based subtitle format used on BDs/HD-DVDs
  286. Title            : Portuguese-FORCED-PGS
  287. Language           : Portuguese
  288. Default            : No
  289. Forced           : No

  290. Menu
  291. 00:00:00.000         : en:Chapter 01
  292. 00:06:36.104         : en:Chapter 02
  293. 00:14:03.467         : en:Chapter 03
  294. 00:21:45.762         : en:Chapter 04
  295. 00:27:53.254         : en:Chapter 05
  296. 00:33:53.906         : en:Chapter 06
  297. 00:40:08.906         : en:Chapter 07
  298. 00:46:58.941         : en:Chapter 08
  299. 00:53:25.785         : en:Chapter 09
  300. 01:02:02.927         : en:Chapter 10
  301. 01:08:47.081         : en:Chapter 11
  302. 01:14:37.222         : en:Chapter 12
  303. 01:20:10.180         : en:Chapter 13
  304. 01:29:13.389         : en:Chapter 14
  305. 01:37:59.498         : en:Chapter 15
  306. 01:44:57.582         : en:Chapter 16
  307. 01:51:15.502         : en:Chapter 17
  308. 01:57:59.447         : en:Chapter 18
  309. 02:06:09.728         : en:Chapter 19
  310. 02:10:54.096         : en:Chapter 20
  311. 02:16:01.153         : en:Chapter 21
  312. 02:21:42.619         : en:Chapter 22
  313. 02:25:17.291         : en:Chapter 23



复制代码
复制代码
122741quxwuvvkppcpkfv4.jpg 122741cf6zoo5flueb5tkl.jpg 122741upztwet2bwzbo9o9.jpg 122741q0cscclewofdjosr.jpg 122741yqs9rvpoafvoq555.jpg 122741gag84qozw5oaq1ff.jpg




回复

使用道具 举报

蓝光币
245
发表于 2018-2-2 12:58:24 | 显示全部楼层
说实话,这片拍得太烂了,没下载的欲望
回复

使用道具 举报

蓝光币
254
发表于 2018-9-4 22:41:45 | 显示全部楼层
谢谢分享,强烈支持
回复

使用道具 举报

蓝光币
254
发表于 2018-9-5 18:27:07 | 显示全部楼层
CHD联盟:lol:lol:lol:lol
回复

使用道具 举报

蓝光币
664
发表于 2019-1-23 19:48:48 | 显示全部楼层

楼主太厉害了!楼主,电影应该很好看我觉得蓝光电影网真是个好地方!
回复

使用道具 举报

蓝光币
150
发表于 2023-2-11 20:20:28 | 显示全部楼层

这东西我收了!谢谢楼主!蓝光电影网真好!
回复

使用道具 举报

懒得打字嘛,点击右侧快捷回复 【右侧内容,后台自定义】
您需要登录后才可以回帖 登录 | 立即加入

本版积分规则

Archiver| |网站地图

Copyright © 2024 Comsenz Inc. Powered by 蓝光电影网

本站内容由用户自主分享和转载自互联网,转载目的在于传递更多信息,并不代表本网赞同其观点和对其真实性负责。

如有侵权、违反国家法律政策行为,请联系我们,我们会第一时间及时清除和处理!

举报反馈邮箱:4k1080.com@gmail.com

快速回复 返回顶部 返回列表