找回密码

查看: 3735|回复: 2

[剧情] 孤注一掷/夺命舞 They.Shoot.Horses.Dont.They.1969.1080p.BluRay.REMUX.AVC.DTS-HD.MA.2.0-FGT 24.80GB

[复制链接]
蓝光币
1971
发表于 2017-12-21 10:39:03 | 显示全部楼层 |阅读模式
123219rc6saggkr3cg9ra8.jpg
◎译  名 孤注一掷 / 夺命舞 / 他们射马,不是吗? / 射马记
◎片  名 孤注一掷 They Shoot Horses, Don't They?
◎年  代 1969
◎国  家 美国
◎类  别 剧情
◎语  言 英语
◎上映日期 1969-12-10
◎IMDb评分7.9/10 from 13,107 users
◎IMDb链接http://www.imdb.com/title/tt0065088/
◎豆瓣评分 7.6/10 from 99 users
◎豆瓣链接 https://movie.douban.com/subject/1295851/
◎片  长 129 分钟(original version) / USA: 120 分钟(current version)
◎导  演 西德尼·波拉克
◎主  演 简·方达 Jane Fonda
      迈克尔·萨拉兹 Michael Sarrazin
      苏珊娜·约克 Susannah York
      吉格·杨 Gig Young
      莱德·巴顿斯 Red Buttons

◎简  介 

  由美国帕洛玛影片公司出品,导演悉尼.波拉克。三十年月初,正值美国经济大冷落期间,洛基为好莱坞举行百对舞蹈选手马拉松大赛,在这些选手中,每小我的目标分歧,有的为了赢利,有的为了能上电影,有的则感应无聊才来参赛。几个星期曩昔了,几对首要合作者都碰到了分歧的意外题目……
  影片以写实的手法,经过反应各色人物的心理,表示出美国社会存在的冲突。纵观全部影片,情节放置、技能处置、演员的表演都算是出色的,曾获第42届(1969)最好导演等9项提名,成果只获得最好男配角1项金像奖。

◎获奖情况 

  第42届奥斯卡金像奖 (1970)
  最好导演(提名) 西德尼·波拉克
  最好女配角(提名) 简·方达
  最好男配角 吉格·杨
  最好女配角(提名) 苏珊娜·约克
  最好改编剧本(提名) Robert E. Thompson /詹姆斯·波
  最好剪辑(提名) Fredric Steinkamp
  最好艺术指导(提名) Harry Horner /Frank R. McKelvy
  最好打扮设想(提名) Donfeld
  歌舞片最好配乐(提名) Johnny Green /Albert Woodbury



  1. Video
  2. ID             : 1
  3. Format           : AVC
  4. Format/Info          : Advanced Video Codec
  5. Format profile         : [email]High@L4.1[/email]
  6. Format settings, CABAC       : Yes
  7. Format settings, ReFrames      : 4 frames
  8. Codec ID           : V_MPEG4/ISO/AVC
  9. Duration           : 1 h 59 min
  10. Bit rate mode          : Variable
  11. Maximum bit rate         : 35.0 Mb/s
  12. Width            : 1 920 pixels
  13. Height           : 1 080 pixels
  14. Display aspect ratio       : 16:9
  15. Frame rate mode        : Constant
  16. Frame rate           : 23.976 (24000/1001) FPS
  17. Standard           : NTSC
  18. Color space          : YUV
  19. Chroma subsampling       : 4:2:0
  20. Bit depth          : 8 bits
  21. Scan type          : Progressive
  22. Title            : They.Shoot.Horses.Dont.They.1969.1080p.BluRay.REMUX.AVC.DTS-HD.MA.2.0-FGT
  23. Language           : English
  24. Default            : No
  25. Forced           : No
  26. Color range          : Limited
  27. Color primaries        : BT.709
  28. Transfer characteristics     : BT.709
  29. Matrix coefficients        : BT.709

  30. Audio #1
  31. ID             : 2
  32. Format           : DTS
  33. Format/Info          : Digital Theater Systems
  34. Format profile         : MA / Core
  35. Mode             : 16
  36. Format settings, Endianness    : Big
  37. Codec ID           : A_DTS
  38. Duration           : 1 h 59 min
  39. Bit rate mode          : Variable / Constant
  40. Bit rate           : Unknown / 1 509 kb/s
  41. Channel(s)           : 2 channels
  42. Channel positions        : Front: L R
  43. Sampling rate          : 48.0 kHz
  44. Frame rate           : 93.750 FPS (512 spf)
  45. Bit depth          : 16 bits
  46. Compression mode         : Lossless / Lossy
  47. Title            : They.Shoot.Horses.Dont.They.1969.1080p.BluRay.REMUX.AVC.DTS-HD.MA.2.0-FGT
  48. Language           : English
  49. Default            : Yes
  50. Forced           : No

  51. Audio #2
  52. ID             : 3
  53. Format           : DTS
  54. Format/Info          : Digital Theater Systems
  55. Mode             : 16
  56. Format settings, Endianness    : Big
  57. Codec ID           : A_DTS
  58. Duration           : 1 h 59 min
  59. Bit rate mode          : Constant
  60. Bit rate           : 1 509 kb/s
  61. Channel(s)           : 2 channels
  62. Channel positions        : Front: L R
  63. Sampling rate          : 48.0 kHz
  64. Frame rate           : 93.750 FPS (512 spf)
  65. Bit depth          : 16 bits
  66. Compression mode         : Lossy
  67. Stream size          : 1.26GB (5%)
  68. Title            : They.Shoot.Horses.Dont.They.1969.1080p.BluRay.REMUX.AVC.DTS-HD.MA.2.0-FGT
  69. Language           : English
  70. Default            : No
  71. Forced           : No

  72. Audio #3
  73. ID             : 4
  74. Format           : AC-3
  75. Format/Info          : Audio Coding 3
  76. Format settings, Endianness    : Big
  77. Codec ID           : A_AC3
  78. Duration           : 1 h 59 min
  79. Bit rate mode          : Constant
  80. Bit rate           : 256 kb/s
  81. Channel(s)           : 2 channels
  82. Channel positions        : Front: L R
  83. Sampling rate          : 48.0 kHz
  84. Frame rate           : 31.250 FPS (1536 spf)
  85. Bit depth          : 16 bits
  86. Compression mode         : Lossy
  87. Stream size          : 220 MiB (1%)
  88. Title            : They.Shoot.Horses.Dont.They.1969.1080p.BluRay.REMUX.AVC.DTS-HD.MA.2.0-FGT
  89. Language           : English
  90. Service kind         : Complete Main
  91. Default            : No
  92. Forced           : No

  93. Audio #4
  94. ID             : 5
  95. Format           : AC-3
  96. Format/Info          : Audio Coding 3
  97. Format settings, Endianness    : Big
  98. Codec ID           : A_AC3
  99. Duration           : 1 h 59 min
  100. Bit rate mode          : Constant
  101. Bit rate           : 256 kb/s
  102. Channel(s)           : 2 channels
  103. Channel positions        : Front: L R
  104. Sampling rate          : 48.0 kHz
  105. Frame rate           : 31.250 FPS (1536 spf)
  106. Bit depth          : 16 bits
  107. Compression mode         : Lossy
  108. Stream size          : 220 MiB (1%)
  109. Title            : They.Shoot.Horses.Dont.They.1969.1080p.BluRay.REMUX.AVC.DTS-HD.MA.2.0-FGT
  110. Language           : English
  111. Service kind         : Complete Main
  112. Default            : No
  113. Forced           : No

  114. Text
  115. ID             : 6
  116. Format           : PGS
  117. Muxing mode          : zlib
  118. Codec ID           : S_HDMV/PGS
  119. Codec ID/Info          : Picture based subtitle format used on BDs/HD-DVDs
  120. Title            : English-PGS
  121. Language           : English
  122. Default            : Yes
  123. Forced           : No

  124. Menu
  125. 00:00:00.000         : en:Chapter 00
  126. 00:10:12.737         : en:Chapter 01
  127. 00:23:34.037         : en:Chapter 02
  128. 00:39:37.917         : en:Chapter 03
  129. 00:57:23.481         : en:Chapter 04
  130. 01:12:14.580         : en:Chapter 05
  131. 01:27:47.428         : en:Chapter 06
  132. 01:42:46.827         : en:Chapter 07
  133. 01:59:56.981         : en:Chapter 08



复制代码
复制代码
123219bjfmz8exxxx15emj.jpg 123219hnxxy7zgcqkcz3ff.jpg 123219sotrbjd0xqmpjqse.jpg 123219lb70zb7jb2z6j5q5.jpg 123219rbxkxbzldc5ibdtv.jpg 123219cu2lqqubngqq0uu8.jpg




回复

使用道具 举报

蓝光币
1
发表于 2023-9-7 11:39:31 | 显示全部楼层

既然你诚信诚意的推荐了,那我就勉为其难的看看吧!蓝光电影网不走平凡路。
回复

使用道具 举报

蓝光币
2
发表于 2023-12-16 10:24:51 | 显示全部楼层
楼主发贴辛苦了,谢谢楼主分享!我觉得蓝光电影网是注册对了!
回复

使用道具 举报

懒得打字嘛,点击右侧快捷回复 【右侧内容,后台自定义】
您需要登录后才可以回帖 登录 | 立即加入

本版积分规则

Archiver| |网站地图

Copyright © 2024 Comsenz Inc. Powered by 蓝光电影网

本站内容由用户自主分享和转载自互联网,转载目的在于传递更多信息,并不代表本网赞同其观点和对其真实性负责。

如有侵权、违反国家法律政策行为,请联系我们,我们会第一时间及时清除和处理!

举报反馈邮箱:4k1080.com@gmail.com

快速回复 返回顶部 返回列表