找回密码

查看: 3788|回复: 3

[动画] 神偷奶爸3/卑鄙的我3 Despicable.Me.3.2017.1080p.BluRay.REMUX.AVC.DTS-X.7.1-FGT 19.52GB

[复制链接]
蓝光币
1971
发表于 2017-12-21 10:41:25 | 显示全部楼层 |阅读模式
123325zvurlp5ppzpcooh5.jpg
◎译  名 神偷奶爸3 / 卑劣的我3 / 好人奖门人3 / 神偷奶爸3之小小兵
◎片  名 神偷奶爸3 Despicable Me 3
◎年  代 2017
◎国  家 美国
◎类  别 笑剧 / 动画 / 冒险
◎语  言 英语
◎上映日期 2017-07-07(中国大陆) / 2017-06-14(安锡动画电影节) / 2017-06-30(美国)
◎IMDb评分6.3/10 from 37,900 users
◎IMDb链接http://www.imdb.com/title/tt3469046/
◎豆瓣评分 6.9/10 from 96474 users
◎豆瓣链接 https://movie.douban.com/subject/25812712/
◎片  长 90分钟
◎导  演 凯尔·巴尔达 / 皮埃尔·科凡 / 埃里克·吉伦
◎主  演 史蒂夫·卡瑞尔 Steve Carell
      克里斯汀·韦格 Kristen Wiig
      崔·帕克 Trey Parker
      米兰达·卡斯格拉夫 Miranda Cosgrove
      达纳·盖尔 Dana Gaier
      内芙·沙雷尔 Nev Scharrel
      皮埃尔·科凡 Pierre Coffin
      史蒂夫·库根 Steve Coogan
      朱莉·安德鲁斯 Julie Andrews
      珍妮·斯蕾特 Jenny Slate
      迈克尔·贝亚蒂 Michael Beattie
      安迪·尼曼 Andy Nyman
      阿德里安·奇斯卡托 Adrian Ciscato
      布莱恩·T·德莱尼 Brian T. Delaney
      肯·道里欧 Ken Daurio

◎简  介 

  《神偷奶爸3》将延续前两部的温馨、搞笑气概,聚焦格鲁和露西的婚后生活,继续报告格鲁和三个女儿的爆笑故事。“无赖”奶爸格鲁将会若何对于大反派巴萨扎·布莱德,调皮心爱的小黄人们又会若何耍平沽萌,无疑让全球观众万分期待。该片配音也最洪流平相沿前作声势,史蒂夫·卡瑞尔继续为男配角格鲁配音,皮埃尔·柯芬也将继续为典范脚色小黄人配音,而新脚色巴萨扎·布莱德则由《南方公园》主创元老崔·帕克为其配音。



  1. Video
  2. ID             : 1
  3. Format           : AVC
  4. Format/Info          : Advanced Video Codec
  5. Format profile         : [email]High@L4.1[/email]
  6. Format settings, CABAC       : Yes
  7. Format settings, ReFrames      : 4 frames
  8. Format settings, GOP       : M=3, N=12
  9. Codec ID           : V_MPEG4/ISO/AVC
  10. Duration           : 1 h 29 min
  11. Bit rate mode          : Variable
  12. Maximum bit rate         : 29.0 Mb/s
  13. Width            : 1 920 pixels
  14. Height           : 1 080 pixels
  15. Display aspect ratio       : 16:9
  16. Frame rate mode        : Constant
  17. Frame rate           : 23.976 (24000/1001) FPS
  18. Color space          : YUV
  19. Chroma subsampling       : 4:2:0
  20. Bit depth          : 8 bits
  21. Scan type          : Progressive
  22. Title            : Despicable.Me.3.2017.1080p.BluRay.REMUX.AVC.DTS-X.7.1-FGT
  23. Language           : English
  24. Default            : No
  25. Forced           : No

  26. Audio #1
  27. ID             : 2
  28. Format           : DTS
  29. Format/Info          : Digital Theater Systems
  30. Format profile         : X / MA / Core
  31. Mode             : 16
  32. Format settings, Endianness    : Big
  33. Codec ID           : A_DTS
  34. Bit rate mode          : Variable / Variable / Constant
  35. Bit rate           : Unknown / Unknown / 1 509 kb/s
  36. Channel(s)           : Object Based / 8 channels / 6 channels
  37. Channel positions        : Object Based / Front: L C R, Side: L R, Back: L R, LFE / Front: L C R, Side: L R, LFE
  38. Sampling rate          :/ 48.0 kHz / 48.0 kHz
  39. Frame rate           : 93.750 FPS (512 spf)
  40. Bit depth          :/ 24 bits / 24 bits
  41. Compression mode         :/ Lossless / Lossy
  42. Title            : Despicable.Me.3.2017.1080p.BluRay.REMUX.AVC.DTS-X.7.1-FGT
  43. Language           : English
  44. Default            : Yes
  45. Forced           : No

  46. Audio #2
  47. ID             : 3
  48. Format           : DTS
  49. Format/Info          : Digital Theater Systems
  50. Mode             : 16
  51. Format settings, Endianness    : Big
  52. Codec ID           : A_DTS
  53. Duration           : 1 h 29 min
  54. Bit rate mode          : Constant
  55. Bit rate           : 1 509 kb/s
  56. Channel(s)           : 6 channels
  57. Channel positions        : Front: L C R, Side: L R, LFE
  58. Sampling rate          : 48.0 kHz
  59. Frame rate           : 93.750 FPS (512 spf)
  60. Bit depth          : 24 bits
  61. Compression mode         : Lossy
  62. Stream size          : 968 MiB (5%)
  63. Title            : Despicable.Me.3.2017.1080p.BluRay.REMUX.AVC.DTS-X.7.1-FGT
  64. Language           : English
  65. Default            : No
  66. Forced           : No

  67. Audio #3
  68. ID             : 4
  69. Format           : DTS
  70. Format/Info          : Digital Theater Systems
  71. Mode             : 16
  72. Format settings, Endianness    : Big
  73. Codec ID           : A_DTS
  74. Duration           : 1 h 29 min
  75. Bit rate mode          : Constant
  76. Bit rate           : 255 kb/s
  77. Channel(s)           : 2 channels
  78. Channel positions        : Front: L R
  79. Sampling rate          : 48.0 kHz
  80. Frame rate           : 93.750 FPS (512 spf)
  81. Bit depth          : 24 bits
  82. Compression mode         : Lossy
  83. Stream size          : 164 MiB (1%)
  84. Title            : Despicable.Me.3.2017.1080p.BluRay.REMUX.AVC.DTS-X.7.1-FGT
  85. Language           : English
  86. Default            : No
  87. Forced           : No

  88. Audio #4
  89. ID             : 5
  90. Format           : AC-3
  91. Format/Info          : Audio Coding 3
  92. Mode             : Dolby Digital
  93. Format settings, Endianness    : Big
  94. Codec ID           : A_AC3
  95. Duration           : 1 h 29 min
  96. Bit rate mode          : Constant
  97. Bit rate           : 192 kb/s
  98. Channel(s)           : 2 channels
  99. Channel positions        : Front: L R
  100. Sampling rate          : 48.0 kHz
  101. Frame rate           : 31.250 FPS (1536 spf)
  102. Bit depth          : 16 bits
  103. Compression mode         : Lossy
  104. Stream size          : 123 MiB (1%)
  105. Title            : Despicable.Me.3.2017.1080p.BluRay.REMUX.AVC.DTS-X.7.1-FGT
  106. Language           : English
  107. Service kind         : Complete Main
  108. Default            : No
  109. Forced           : No

  110. Text
  111. ID             : 6
  112. Format           : PGS
  113. Muxing mode          : zlib
  114. Codec ID           : S_HDMV/PGS
  115. Codec ID/Info          : Picture based subtitle format used on BDs/HD-DVDs
  116. Title            : English-PGS
  117. Language           : English
  118. Default            : Yes
  119. Forced           : No

  120. Menu
  121. 00:00:00.000         : en:Chapter 01
  122. 00:03:06.102         : en:Chapter 02
  123. 00:07:57.935         : en:Chapter 03
  124. 00:11:12.838         : en:Chapter 04
  125. 00:16:15.766         : en:Chapter 05
  126. 00:20:07.497         : en:Chapter 06
  127. 00:24:07.988         : en:Chapter 07
  128. 00:28:56.818         : en:Chapter 08
  129. 00:32:55.348         : en:Chapter 09
  130. 00:39:01.839         : en:Chapter 10
  131. 00:42:44.186         : en:Chapter 11
  132. 00:46:47.179         : en:Chapter 12
  133. 00:50:55.635         : en:Chapter 13
  134. 00:56:12.077         : en:Chapter 14
  135. 01:00:02.265         : en:Chapter 15
  136. 01:05:41.228         : en:Chapter 16
  137. 01:10:14.543         : en:Chapter 17
  138. 01:14:33.760         : en:Chapter 18
  139. 01:19:29.723         : en:Chapter 19
  140. 01:21:56.995         : en:Chapter 20



复制代码
复制代码
123325qmyljvpzy4gf0e0j.jpg 123325vq40v08vlameezc3.jpg 123325ha3mzneumuazw4us.jpg 123325hvdkpsfudscqvscf.jpg 123325o53btzauqkzgbks5.jpg 123325i3z2r3kr7syxe33k.jpg





回复

使用道具 举报

懒得打字嘛,点击右侧快捷回复 【右侧内容,后台自定义】
您需要登录后才可以回帖 登录 | 立即加入

本版积分规则

Archiver| |网站地图

Copyright © 2024 Comsenz Inc. Powered by 蓝光电影网

本站内容由用户自主分享和转载自互联网,转载目的在于传递更多信息,并不代表本网赞同其观点和对其真实性负责。

如有侵权、违反国家法律政策行为,请联系我们,我们会第一时间及时清除和处理!

举报反馈邮箱:4k1080.com@gmail.com

快速回复 返回顶部 返回列表