找回密码

查看: 2360|回复: 0

[剧情] 鬼魅浮生/鬼故事 A.Ghost.Story.2017.1080p.BluRay.REMUX.AVC.DTS-HD.MA.5.1-FGT 16.10GB

[复制链接]
蓝光币
1984
发表于 2017-12-21 10:46:44 | 显示全部楼层 |阅读模式
123632v1v76oooo2z9a9a1.jpg
◎译  名 鬼魅浮生 / 鬼故事
◎片  名 鬼魅浮生 A Ghost Story
◎年  代 2017
◎国  家 美国
◎类  别 剧情 / 恋爱 / 奇异
◎语  言 英语
◎上映日期 2017-01-22(圣丹斯电影节) / 2017-07-07(美国)
◎IMDb评分7.3/10 from 7,222 users
◎IMDb链接http://www.imdb.com/title/tt6265828/
◎豆瓣评分 7.7/10 from 3897 users
◎豆瓣链接 https://movie.douban.com/subject/26920017/
◎片  长 92分钟
◎导  演 大卫·洛维
◎主  演 卡西·阿弗莱克 Casey Affleck
      鲁妮·玛拉 Rooney Mara
      肯妮莎·汤普森 Kenneisha Thompson
      格罗弗·库尔森 Grover Coulson
      丽兹·弗兰卡 Liz Franke
      巴洛·雅克布斯 Barlow Jacobs
      理查德·克劳斯 Richard Krause
      卡莎 Kesha
      威尔·奥德哈姆 Will Oldham
      布瑞亚·格兰特 Brea Grant
      奥古斯丁·弗里泽尔 Augustine Frizzell
      乔尼·马尔斯 Jonny Mars
      布莱恩·皮茨 Bryan Pitts
      罗布·萨布雷基 Rob Zabrecky

◎简  介 

  C(卡西·阿弗莱克 Casey Affleck 饰)与M(鲁妮·玛拉 Rooney Mara 饰)是一对甜蜜的情人,直到一天,C意外归天,留下孤独的M,而此时,C的鬼魂披着床单返来陪伴女主…



  1. Video
  2. ID             : 1
  3. Format           : AVC
  4. Format/Info          : Advanced Video Codec
  5. Format profile         : [email]High@L4.1[/email]
  6. Format settings, CABAC       : Yes
  7. Format settings, ReFrames      : 4 frames
  8. Codec ID           : V_MPEG4/ISO/AVC
  9. Duration           : 1 h 32 min
  10. Bit rate mode          : Variable
  11. Maximum bit rate         : 37.0 Mb/s
  12. Width            : 1 920 pixels
  13. Height           : 1 080 pixels
  14. Display aspect ratio       : 16:9
  15. Frame rate mode        : Constant
  16. Frame rate           : 23.976 (24000/1001) FPS
  17. Color space          : YUV
  18. Chroma subsampling       : 4:2:0
  19. Bit depth          : 8 bits
  20. Scan type          : Progressive
  21. Title            : A.Ghost.Story.2017.1080p.BluRay.REMUX.AVC.DTS-HD.MA.5.1-FGT
  22. Language           : English
  23. Default            : No
  24. Forced           : No

  25. Audio #1
  26. ID             : 2
  27. Format           : DTS
  28. Format/Info          : Digital Theater Systems
  29. Format profile         : MA / Core
  30. Mode             : 16
  31. Format settings, Endianness    : Big
  32. Codec ID           : A_DTS
  33. Duration           : 1 h 32 min
  34. Bit rate mode          : Variable / Constant
  35. Bit rate           : Unknown / 1 509 kb/s
  36. Channel(s)           : 6 channels
  37. Channel positions        : Front: L C R, Side: L R, LFE
  38. Sampling rate          : 48.0 kHz
  39. Frame rate           : 93.750 FPS (512 spf)
  40. Bit depth          : 24 bits
  41. Compression mode         : Lossless / Lossy
  42. Title            : A.Ghost.Story.2017.1080p.BluRay.REMUX.AVC.DTS-HD.MA.5.1-FGT
  43. Language           : English
  44. Default            : Yes
  45. Forced           : No

  46. Audio #2
  47. ID             : 3
  48. Format           : DTS
  49. Format/Info          : Digital Theater Systems
  50. Mode             : 16
  51. Format settings, Endianness    : Big
  52. Codec ID           : A_DTS
  53. Duration           : 1 h 32 min
  54. Bit rate mode          : Constant
  55. Bit rate           : 1 509 kb/s
  56. Channel(s)           : 6 channels
  57. Channel positions        : Front: L C R, Side: L R, LFE
  58. Sampling rate          : 48.0 kHz
  59. Frame rate           : 93.750 FPS (512 spf)
  60. Bit depth          : 24 bits
  61. Compression mode         : Lossy
  62. Stream size          : 994 MiB (6%)
  63. Title            : A.Ghost.Story.2017.1080p.BluRay.REMUX.AVC.DTS-HD.MA.5.1-FGT
  64. Language           : English
  65. Default            : No
  66. Forced           : No

  67. Audio #3
  68. ID             : 4
  69. Format           : AC-3
  70. Format/Info          : Audio Coding 3
  71. Format settings, Endianness    : Big
  72. Codec ID           : A_AC3
  73. Duration           : 1 h 32 min
  74. Bit rate mode          : Constant
  75. Bit rate           : 192 kb/s
  76. Channel(s)           : 2 channels
  77. Channel positions        : Front: L R
  78. Sampling rate          : 48.0 kHz
  79. Frame rate           : 31.250 FPS (1536 spf)
  80. Bit depth          : 16 bits
  81. Compression mode         : Lossy
  82. Stream size          : 127 MiB (1%)
  83. Title            : A.Ghost.Story.2017.1080p.BluRay.REMUX.AVC.DTS-HD.MA.5.1-FGT
  84. Language           : English
  85. Service kind         : Complete Main
  86. Default            : No
  87. Forced           : No

  88. Text #1
  89. ID             : 5
  90. Format           : PGS
  91. Muxing mode          : zlib
  92. Codec ID           : S_HDMV/PGS
  93. Codec ID/Info          : Picture based subtitle format used on BDs/HD-DVDs
  94. Title            : English-PGS
  95. Language           : English
  96. Default            : Yes
  97. Forced           : No

  98. Text #2
  99. ID             : 6
  100. Format           : PGS
  101. Muxing mode          : zlib
  102. Codec ID           : S_HDMV/PGS
  103. Codec ID/Info          : Picture based subtitle format used on BDs/HD-DVDs
  104. Title            : Spanish-PGS
  105. Language           : Spanish
  106. Default            : No
  107. Forced           : No

  108. Menu
  109. 00:00:00.000         : en:Chapter 01
  110. 00:06:12.622         : en:Chapter 02
  111. 00:11:27.103         : en:Chapter 03
  112. 00:16:09.802         : en:Chapter 04
  113. 00:22:37.397         : en:Chapter 05
  114. 00:26:38.221         : en:Chapter 06
  115. 00:33:45.982         : en:Chapter 07
  116. 00:38:27.013         : en:Chapter 08
  117. 00:43:49.668         : en:Chapter 09
  118. 00:49:56.702         : en:Chapter 10
  119. 00:56:13.870         : en:Chapter 11
  120. 01:04:44.630         : en:Chapter 12
  121. 01:08:55.840         : en:Chapter 13
  122. 01:11:44.717         : en:Chapter 14
  123. 01:18:37.963         : en:Chapter 15
  124. 01:23:09.567         : en:Chapter 16



复制代码
复制代码
123632vmzgyfertygtgthf.jpg 123632a75185neqr1g155i.jpg 123632crjjpahvpja3laa3.jpg 123632t0sava6775avpooa.jpg 123632x1d5h71d98g68o89.jpg 123632so4kwou9kqdo9w1o.jpg




回复

使用道具 举报

懒得打字嘛,点击右侧快捷回复 【右侧内容,后台自定义】
您需要登录后才可以回帖 登录 | 立即加入

本版积分规则

Archiver| |网站地图

Copyright © 2024 Comsenz Inc. Powered by 蓝光电影网

本站内容由用户自主分享和转载自互联网,转载目的在于传递更多信息,并不代表本网赞同其观点和对其真实性负责。

如有侵权、违反国家法律政策行为,请联系我们,我们会第一时间及时清除和处理!

举报反馈邮箱:4k1080.com@gmail.com

快速回复 返回顶部 返回列表