找回密码

查看: 2434|回复: 0

[剧情] 亨利之书/亨利的书 The.Book.Of.Henry.2017.1080p.BluRay.REMUX.AVC.DTS-HD.MA.5.1-FGT 28.19GB

[复制链接]
蓝光币
1982
发表于 2017-12-21 11:01:31 | 显示全部楼层 |阅读模式
131613fl21eaib9ee3o3za.jpg
◎译  名 亨利之书 / 亨利的书
◎片  名 亨利之书 The Book of Henry
◎年  代 2017
◎国  家 美国
◎类  别 剧情 / 惊悚
◎语  言 英语
◎上映日期 2017-06-16(美国)
◎IMDb评分6.2/10 from 3,061 users
◎IMDb链接http://www.imdb.com/title/tt4572792/
◎豆瓣评分 6.6/10 from 361 users
◎豆瓣链接 https://movie.douban.com/subject/26357441/
◎片  长 105分钟
◎导  演 科林·特雷沃罗
◎主  演 娜奥米·沃茨 Naomi Watts
      杰顿·李博赫 Jaeden Lieberher
      雅各布·特伦布莱 Jacob Tremblay
      萨拉·西尔弗曼 Sarah Silverman
      迪恩·诺里斯 Dean Norris
      李·佩斯 Lee Pace
      麦迪·齐格勒 Maddie Ziegler
      托尼娅·皮金斯 Tonya Pinkins
      鲍比·莫尼汉 Bobby Moynihan
      杰拉尔丁·休斯 Geraldine Hughes
      马克斯韦尔·锡姆金斯 Maxwell Simkins
      杰克逊·尼科尔 Jackson Nicoll
      唐奈塔·拉维尼亚·格雷斯 Donnetta Lavinia Grays
      乔尔·加兰 Joel Garland
      沃斯·史蒂文斯 Wass Stevens

◎简  介 

  《亨利之书》报告小男孩亨利为了庇护邻人家的小姑娘不被她的父亲所伤,暗自策划了一场谋杀。



  1. Video
  2. ID             : 1
  3. Format           : AVC
  4. Format/Info          : Advanced Video Codec
  5. Format profile         : [email]High@L4.1[/email]
  6. Format settings, CABAC       : Yes
  7. Format settings, ReFrames      : 4 frames
  8. Format settings, GOP       : M=3, N=12
  9. Codec ID           : V_MPEG4/ISO/AVC
  10. Duration           : 1 h 45 min
  11. Bit rate mode          : Variable
  12. Maximum bit rate         : 35.0 Mb/s
  13. Width            : 1 920 pixels
  14. Height           : 1 080 pixels
  15. Display aspect ratio       : 16:9
  16. Frame rate mode        : Constant
  17. Frame rate           : 23.976 (24000/1001) FPS
  18. Color space          : YUV
  19. Chroma subsampling       : 4:2:0
  20. Bit depth          : 8 bits
  21. Scan type          : Progressive
  22. Title            : The.Book.Of.Henry.2017.1080p.BluRay.REMUX.AVC.DTS-HD.MA.5.1-FGT
  23. Language           : English
  24. Default            : No
  25. Forced           : No

  26. Audio #1
  27. ID             : 2
  28. Format           : DTS
  29. Format/Info          : Digital Theater Systems
  30. Format profile         : MA / Core
  31. Mode             : 16
  32. Format settings, Endianness    : Big
  33. Codec ID           : A_DTS
  34. Duration           : 1 h 45 min
  35. Bit rate mode          : Variable / Constant
  36. Bit rate           : Unknown / 1 509 kb/s
  37. Channel(s)           : 6 channels
  38. Channel positions        : Front: L C R, Side: L R, LFE
  39. Sampling rate          : 48.0 kHz
  40. Frame rate           : 93.750 FPS (512 spf)
  41. Bit depth          : 24 bits
  42. Compression mode         : Lossless / Lossy
  43. Title            : The.Book.Of.Henry.2017.1080p.BluRay.REMUX.AVC.DTS-HD.MA.5.1-FGT
  44. Language           : English
  45. Default            : Yes
  46. Forced           : No

  47. Audio #2
  48. ID             : 3
  49. Format           : DTS
  50. Format/Info          : Digital Theater Systems
  51. Mode             : 16
  52. Format settings, Endianness    : Big
  53. Codec ID           : A_DTS
  54. Duration           : 1 h 45 min
  55. Bit rate mode          : Constant
  56. Bit rate           : 1 509 kb/s
  57. Channel(s)           : 6 channels
  58. Channel positions        : Front: L C R, Side: L R, LFE
  59. Sampling rate          : 48.0 kHz
  60. Frame rate           : 93.750 FPS (512 spf)
  61. Bit depth          : 24 bits
  62. Compression mode         : Lossy
  63. Stream size          : 1.11GB (4%)
  64. Title            : The.Book.Of.Henry.2017.1080p.BluRay.REMUX.AVC.DTS-HD.MA.5.1-FGT
  65. Language           : English
  66. Default            : No
  67. Forced           : No

  68. Audio #3
  69. ID             : 4
  70. Format           : DTS
  71. Format/Info          : Digital Theater Systems
  72. Mode             : 16
  73. Format settings, Endianness    : Big
  74. Codec ID           : A_DTS
  75. Duration           : 1 h 45 min
  76. Bit rate mode          : Constant
  77. Bit rate           : 768 kb/s
  78. Channel(s)           : 6 channels
  79. Channel positions        : Front: L C R, Side: L R, LFE
  80. Sampling rate          : 48.0 kHz
  81. Frame rate           : 93.750 FPS (512 spf)
  82. Bit depth          : 24 bits
  83. Compression mode         : Lossy
  84. Stream size          : 578 MiB (2%)
  85. Title            : The.Book.Of.Henry.2017.1080p.BluRay.REMUX.AVC.DTS-HD.MA.5.1-FGT
  86. Language           : French
  87. Default            : No
  88. Forced           : No

  89. Audio #4
  90. ID             : 5
  91. Format           : DTS
  92. Format/Info          : Digital Theater Systems
  93. Mode             : 16
  94. Format settings, Endianness    : Big
  95. Codec ID           : A_DTS
  96. Duration           : 1 h 45 min
  97. Bit rate mode          : Constant
  98. Bit rate           : 768 kb/s
  99. Channel(s)           : 6 channels
  100. Channel positions        : Front: L C R, Side: L R, LFE
  101. Sampling rate          : 48.0 kHz
  102. Frame rate           : 93.750 FPS (512 spf)
  103. Bit depth          : 24 bits
  104. Compression mode         : Lossy
  105. Stream size          : 578 MiB (2%)
  106. Title            : The.Book.Of.Henry.2017.1080p.BluRay.REMUX.AVC.DTS-HD.MA.5.1-FGT
  107. Language           : German
  108. Default            : No
  109. Forced           : No

  110. Audio #5
  111. ID             : 6
  112. Format           : AC-3
  113. Format/Info          : Audio Coding 3
  114. Mode             : Dolby Digital
  115. Format settings, Endianness    : Big
  116. Codec ID           : A_AC3
  117. Duration           : 1 h 45 min
  118. Bit rate mode          : Constant
  119. Bit rate           : 192 kb/s
  120. Channel(s)           : 2 channels
  121. Channel positions        : Front: L R
  122. Sampling rate          : 48.0 kHz
  123. Frame rate           : 31.250 FPS (1536 spf)
  124. Bit depth          : 16 bits
  125. Compression mode         : Lossy
  126. Stream size          : 144 MiB (1%)
  127. Title            : The.Book.Of.Henry.2017.1080p.BluRay.REMUX.AVC.DTS-HD.MA.5.1-FGT
  128. Language           : English
  129. Service kind         : Complete Main
  130. Default            : No
  131. Forced           : No

  132. Text #1
  133. ID             : 7
  134. Format           : PGS
  135. Muxing mode          : zlib
  136. Codec ID           : S_HDMV/PGS
  137. Codec ID/Info          : Picture based subtitle format used on BDs/HD-DVDs
  138. Title            : English-PGS
  139. Language           : English
  140. Default            : Yes
  141. Forced           : No

  142. Text #2
  143. ID             : 8
  144. Format           : PGS
  145. Muxing mode          : zlib
  146. Codec ID           : S_HDMV/PGS
  147. Codec ID/Info          : Picture based subtitle format used on BDs/HD-DVDs
  148. Title            : French-PGS
  149. Language           : French
  150. Default            : No
  151. Forced           : No

  152. Text #3
  153. ID             : 9
  154. Format           : PGS
  155. Muxing mode          : zlib
  156. Codec ID           : S_HDMV/PGS
  157. Codec ID/Info          : Picture based subtitle format used on BDs/HD-DVDs
  158. Title            : Spanish-PGS
  159. Language           : Spanish
  160. Default            : No
  161. Forced           : No

  162. Text #4
  163. ID             : 10
  164. Format           : PGS
  165. Muxing mode          : zlib
  166. Codec ID           : S_HDMV/PGS
  167. Codec ID/Info          : Picture based subtitle format used on BDs/HD-DVDs
  168. Title            : German-PGS
  169. Language           : German
  170. Default            : No
  171. Forced           : No

  172. Text #5
  173. ID             : 11
  174. Format           : PGS
  175. Muxing mode          : zlib
  176. Codec ID           : S_HDMV/PGS
  177. Codec ID/Info          : Picture based subtitle format used on BDs/HD-DVDs
  178. Title            : French-FORCED-PGS
  179. Language           : French
  180. Default            : No
  181. Forced           : No

  182. Text #6
  183. ID             : 12
  184. Format           : PGS
  185. Muxing mode          : zlib
  186. Codec ID           : S_HDMV/PGS
  187. Codec ID/Info          : Picture based subtitle format used on BDs/HD-DVDs
  188. Title            : German-FORCED-PGS
  189. Language           : German
  190. Default            : No
  191. Forced           : No

  192. Menu
  193. 00:00:00.000         : en:Chapter 01
  194. 00:02:54.591         : en:Chapter 02
  195. 00:10:45.311         : en:Chapter 03
  196. 00:16:41.041         : en:Chapter 04
  197. 00:21:56.231         : en:Chapter 05
  198. 00:27:54.673         : en:Chapter 06
  199. 00:32:08.384         : en:Chapter 07
  200. 00:35:41.180         : en:Chapter 08
  201. 00:42:17.034         : en:Chapter 09
  202. 00:47:41.441         : en:Chapter 10
  203. 00:51:44.851         : en:Chapter 11
  204. 00:57:15.849         : en:Chapter 12
  205. 01:00:54.025         : en:Chapter 13
  206. 01:08:16.217         : en:Chapter 14
  207. 01:12:32.765         : en:Chapter 15
  208. 01:18:37.045         : en:Chapter 16
  209. 01:25:25.745         : en:Chapter 17
  210. 01:30:34.470         : en:Chapter 18
  211. 01:35:16.293         : en:Chapter 19
  212. 01:41:23.660         : en:Chapter 20



复制代码
复制代码
131613dlcjjc9c94a44scj.jpg 131613kpk0dfqlnpv7fj8v.jpg 131613vff0r1r0k7beortz.jpg 131613kptbmz0a1mazq1sy.jpg 131613jsvqyqvqtbqsdy0z.jpg 131613eqw22quuw7yqyqyp.jpg




回复

使用道具 举报

懒得打字嘛,点击右侧快捷回复 【右侧内容,后台自定义】
您需要登录后才可以回帖 登录 | 立即加入

本版积分规则

Archiver| |网站地图

Copyright © 2024 Comsenz Inc. Powered by 蓝光电影网

本站内容由用户自主分享和转载自互联网,转载目的在于传递更多信息,并不代表本网赞同其观点和对其真实性负责。

如有侵权、违反国家法律政策行为,请联系我们,我们会第一时间及时清除和处理!

举报反馈邮箱:4k1080.com@gmail.com

快速回复 返回顶部 返回列表