找回密码

查看: 2483|回复: 3

[惊悚] 许愿/夺命潘朵拉 Wish.Upon.2017.UNRATED.1080p.BluRay.REMUX.AVC.DTS-HD.MA.5.1-FGT 25.10GB

[复制链接]
蓝光币
1971
发表于 2017-12-21 11:04:31 | 显示全部楼层 |阅读模式
131941amsnbblonnbljmba.jpg
◎译  名 许愿 / 夺命潘朵拉 / 死神凶盒
◎片  名 许愿 Wish Upon
◎年  代 2017
◎国  家 美国
◎类  别 惊悚 / 可骇 / 奇异
◎语  言 英语
◎上映日期 2017-07-14(美国)
◎IMDb评分4.8/10 from 3,372 users
◎IMDb链接http://www.imdb.com/title/tt5322012/
◎豆瓣评分 5.4/10 from 144 users
◎豆瓣链接 https://movie.douban.com/subject/26686502/
◎片  长 90分钟
◎导  演 约翰·R·莱昂耐迪
◎主  演 乔伊·金 Joey King
      瑞恩·菲利普 Ryan Phillippe
      李起弘 Ki Hong Lee
      米切尔·斯莱格特 Mitchell Slaggert
      香农·珀瑟 Shannon Purser
      希妮·帕克 Sydney Park
      伊丽莎白·霍尔姆 Elisabeth R?hm
      约瑟芬·兰福德 Josephine Langford
      亚历山大·努涅斯 Alexander Nunez
      达妮埃拉·巴博萨 Daniela Barbosa
      凯文·汉查德 Kevin Hanchard
      雪琳·芬 Sherilyn Fenn
      拉根·雷沃德 Raegan Revord
      爱丽丝·李 Alice Lee
      米歇尔·亚历山大 Michelle Alexander

◎简  介 

  约翰·R·莱昂耐迪执导,故事报告生活昏暗不胜的17岁少女(乔伊·饰物)偶得可以实现7个愿望的奥秘盒子,但是女孩每一次许愿都激发了可怕的结果。该片今朝在多伦多展开拍摄,估计明年上映。



  1. Video
  2. ID             : 1
  3. Format           : AVC
  4. Format/Info          : Advanced Video Codec
  5. Format profile         : [email]High@L4.1[/email]
  6. Format settings, CABAC       : Yes
  7. Format settings, ReFrames      : 4 frames
  8. Codec ID           : V_MPEG4/ISO/AVC
  9. Duration           : 1 h 30 min
  10. Bit rate mode          : Variable
  11. Maximum bit rate         : 37.0 Mb/s
  12. Width            : 1 920 pixels
  13. Height           : 1 080 pixels
  14. Display aspect ratio       : 16:9
  15. Frame rate mode        : Constant
  16. Frame rate           : 23.976 (24000/1001) FPS
  17. Color space          : YUV
  18. Chroma subsampling       : 4:2:0
  19. Bit depth          : 8 bits
  20. Scan type          : Progressive
  21. Title            : Wish.Upon.2017.UNRATED.1080p.BluRay.REMUX.AVC.DTS-HD.MA.5.1-FGT
  22. Language           : English
  23. Default            : No
  24. Forced           : No

  25. Audio #1
  26. ID             : 2
  27. Format           : DTS
  28. Format/Info          : Digital Theater Systems
  29. Format profile         : MA / Core
  30. Mode             : 16
  31. Format settings, Endianness    : Big
  32. Codec ID           : A_DTS
  33. Duration           : 1 h 30 min
  34. Bit rate mode          : Variable / Constant
  35. Bit rate           : Unknown / 1 509 kb/s
  36. Channel(s)           : 6 channels
  37. Channel positions        : Front: L C R, Side: L R, LFE
  38. Sampling rate          : 48.0 kHz
  39. Frame rate           : 93.750 FPS (512 spf)
  40. Bit depth          : 24 bits
  41. Compression mode         : Lossless / Lossy
  42. Title            : Wish.Upon.2017.UNRATED.1080p.BluRay.REMUX.AVC.DTS-HD.MA.5.1-FGT
  43. Language           : English
  44. Default            : Yes
  45. Forced           : No

  46. Audio #2
  47. ID             : 3
  48. Format           : DTS
  49. Format/Info          : Digital Theater Systems
  50. Mode             : 16
  51. Format settings, Endianness    : Big
  52. Codec ID           : A_DTS
  53. Duration           : 1 h 30 min
  54. Bit rate mode          : Constant
  55. Bit rate           : 1 509 kb/s
  56. Channel(s)           : 6 channels
  57. Channel positions        : Front: L C R, Side: L R, LFE
  58. Sampling rate          : 48.0 kHz
  59. Frame rate           : 93.750 FPS (512 spf)
  60. Bit depth          : 24 bits
  61. Compression mode         : Lossy
  62. Stream size          : 981 MiB (4%)
  63. Title            : Wish.Upon.2017.UNRATED.1080p.BluRay.REMUX.AVC.DTS-HD.MA.5.1-FGT
  64. Language           : English
  65. Default            : No
  66. Forced           : No

  67. Audio #3
  68. ID             : 4
  69. Format           : DTS
  70. Format/Info          : Digital Theater Systems
  71. Mode             : 16
  72. Format settings, Endianness    : Big
  73. Codec ID           : A_DTS
  74. Duration           : 1 h 30 min
  75. Bit rate mode          : Constant
  76. Bit rate           : 768 kb/s
  77. Channel(s)           : 6 channels
  78. Channel positions        : Front: L C R, Side: L R, LFE
  79. Sampling rate          : 48.0 kHz
  80. Frame rate           : 93.750 FPS (512 spf)
  81. Bit depth          : 24 bits
  82. Compression mode         : Lossy
  83. Stream size          : 499 MiB (2%)
  84. Title            : Wish.Upon.2017.UNRATED.1080p.BluRay.REMUX.AVC.DTS-HD.MA.5.1-FGT
  85. Language           : Spanish
  86. Default            : No
  87. Forced           : No

  88. Text #1
  89. ID             : 5
  90. Format           : PGS
  91. Muxing mode          : zlib
  92. Codec ID           : S_HDMV/PGS
  93. Codec ID/Info          : Picture based subtitle format used on BDs/HD-DVDs
  94. Title            : English-PGS
  95. Language           : English
  96. Default            : Yes
  97. Forced           : No

  98. Text #2
  99. ID             : 6
  100. Format           : PGS
  101. Muxing mode          : zlib
  102. Codec ID           : S_HDMV/PGS
  103. Codec ID/Info          : Picture based subtitle format used on BDs/HD-DVDs
  104. Title            : Spanish-PGS
  105. Language           : Spanish
  106. Default            : No
  107. Forced           : No

  108. Menu
  109. 00:00:00.000         : en:Chapter 01
  110. 00:05:43.676         : en:Chapter 02
  111. 00:11:56.090         : en:Chapter 03
  112. 00:15:53.535         : en:Chapter 04
  113. 00:21:14.564         : en:Chapter 05
  114. 00:25:53.969         : en:Chapter 06
  115. 00:31:05.613         : en:Chapter 07
  116. 00:35:30.795         : en:Chapter 08
  117. 00:41:01.834         : en:Chapter 09
  118. 00:47:38.814         : en:Chapter 10
  119. 00:52:02.744         : en:Chapter 11
  120. 00:56:02.150         : en:Chapter 12
  121. 01:03:27.220         : en:Chapter 13
  122. 01:13:19.645         : en:Chapter 14
  123. 01:18:24.366         : en:Chapter 15
  124. 01:25:21.491         : en:Chapter 16



复制代码
复制代码
131941ig2j1j1emkkz40rm.jpg 131941bc8l3lkcwl4uuf2x.jpg 131941h5m8l5tll25lvztt.jpg 131941hjj5v8ey7snl97kz.jpg 131941auqh2m5311263m12.jpg 131941nr94ujbcy9k393yk.jpg

                                


回复

使用道具 举报

懒得打字嘛,点击右侧快捷回复 【右侧内容,后台自定义】
您需要登录后才可以回帖 登录 | 立即加入

本版积分规则

Archiver| |网站地图

Copyright © 2024 Comsenz Inc. Powered by 蓝光电影网

本站内容由用户自主分享和转载自互联网,转载目的在于传递更多信息,并不代表本网赞同其观点和对其真实性负责。

如有侵权、违反国家法律政策行为,请联系我们,我们会第一时间及时清除和处理!

举报反馈邮箱:4k1080.com@gmail.com

快速回复 返回顶部 返回列表