找回密码

查看: 2508|回复: 0

[剧情] 六天/六日 6.Days.2017.1080p.BluRay.REMUX.AVC.DTS-HD.MA.5.1-FGT 19.86GB

[复制链接]
蓝光币
1992
发表于 2017-12-21 11:07:21 | 显示全部楼层 |阅读模式
132208nbibiubgerav69zf.jpg
◎译  名 六天 / 六日
◎片  名 六天 6 Days
◎年  代 2017
◎国  家 英国 / 新西兰
◎类  别 剧情 / 行动 / 惊悚 / 历史
◎语  言 英语
◎上映日期 2017-08-04(新西兰电影节) / 2017-09-07(新西兰)
◎IMDb评分6.1/10 from 2,229 users
◎IMDb链接http://www.imdb.com/title/tt4703048/
◎豆瓣评分 6.3/10 from 919 users
◎豆瓣链接 https://movie.douban.com/subject/26438227/
◎片  长 94分钟
◎导  演 托亚·弗莱瑟
◎主  演 杰米·贝尔 Jamie Bell
      马克·斯特朗 Mark Strong
      艾比·考尼什 Abbie Cornish
      马丁·肖 Martin Shaw
      本·特纳 Ben Turner
      埃蒙·埃利奥特 Emun Elliott
      艾蒙·汉道奇 Aymen Hamdouchi
      安得烈·格兰杰 Andrew Grainger
      特克赫·图哈卡 Te Kohe Tuhaka
      威廉·丘布 William Chubb
      罗南·维博特 Ronan Vibert
      蒂姆·唐尼 Tim Downie
      马修·桑德兰 Matthew Sunderland
      肯尼斯·克拉德 Kenneth Collard
      尼古拉斯·博尔顿 Nicholas Boulton
      基普·查普曼 Kip Chapman
      埃里克·科尔文 Eric Colvin
      约翰·亨肖 John Henshaw
      科林·莫伊 Colin Moy
      蒂姆·皮戈特-史姑娘 Tim Pigott-Smith
      罗伯特·波特尔 Robert Portal
      杰·萨瑟兰 Jay Sutherland
      贾里德·特纳 Jared Turner

◎简  介 

  该片按照实在事务改编,1980年伊朗驻伦敦大使馆遭六名可骇份子攻击,而SAS(特种空勤团)战士等和可骇份子的对峙延续快要六天,第六日最初的还击起头。



  1. Video
  2. ID             : 1
  3. Format           : AVC
  4. Format/Info          : Advanced Video Codec
  5. Format profile         : [email]High@L4.1[/email]
  6. Format settings, CABAC       : Yes
  7. Format settings, ReFrames      : 4 frames
  8. Codec ID           : V_MPEG4/ISO/AVC
  9. Duration           : 1 h 34 min
  10. Bit rate mode          : Variable
  11. Maximum bit rate         : 35.0 Mb/s
  12. Width            : 1 920 pixels
  13. Height           : 1 080 pixels
  14. Display aspect ratio       : 16:9
  15. Frame rate mode        : Constant
  16. Frame rate           : 23.976 (24000/1001) FPS
  17. Standard           : NTSC
  18. Color space          : YUV
  19. Chroma subsampling       : 4:2:0
  20. Bit depth          : 8 bits
  21. Scan type          : Progressive
  22. Title            : 6.Days.2017.1080p.BluRay.REMUX.AVC.DTS-HD.MA.5.1-FGT
  23. Language           : English
  24. Default            : No
  25. Forced           : No
  26. Color range          : Limited
  27. Color primaries        : BT.709
  28. Transfer characteristics     : BT.709
  29. Matrix coefficients        : BT.709

  30. Audio #1
  31. ID             : 2
  32. Format           : DTS
  33. Format/Info          : Digital Theater Systems
  34. Format profile         : MA / Core
  35. Mode             : 16
  36. Format settings, Endianness    : Big
  37. Codec ID           : A_DTS
  38. Duration           : 1 h 34 min
  39. Bit rate mode          : Variable / Constant
  40. Bit rate           : Unknown / 1 509 kb/s
  41. Channel(s)           : 6 channels
  42. Channel positions        : Front: L C R, Side: L R, LFE
  43. Sampling rate          : 48.0 kHz
  44. Frame rate           : 93.750 FPS (512 spf)
  45. Bit depth          : 24 bits
  46. Compression mode         : Lossless / Lossy
  47. Title            : 6.Days.2017.1080p.BluRay.REMUX.AVC.DTS-HD.MA.5.1-FGT
  48. Language           : English
  49. Default            : Yes
  50. Forced           : No

  51. Audio #2
  52. ID             : 3
  53. Format           : DTS
  54. Format/Info          : Digital Theater Systems
  55. Mode             : 16
  56. Format settings, Endianness    : Big
  57. Codec ID           : A_DTS
  58. Duration           : 1 h 34 min
  59. Bit rate mode          : Constant
  60. Bit rate           : 1 509 kb/s
  61. Channel(s)           : 6 channels
  62. Channel positions        : Front: L C R, Side: L R, LFE
  63. Sampling rate          : 48.0 kHz
  64. Frame rate           : 93.750 FPS (512 spf)
  65. Bit depth          : 24 bits
  66. Compression mode         : Lossy
  67. Stream size          : 1 021 MiB (5%)
  68. Title            : 6.Days.2017.1080p.BluRay.REMUX.AVC.DTS-HD.MA.5.1-FGT
  69. Language           : English
  70. Default            : No
  71. Forced           : No

  72. Audio #3
  73. ID             : 4
  74. Format           : AC-3
  75. Format/Info          : Audio Coding 3
  76. Format settings, Endianness    : Big
  77. Codec ID           : A_AC3
  78. Duration           : 1 h 34 min
  79. Bit rate mode          : Constant
  80. Bit rate           : 192 kb/s
  81. Channel(s)           : 2 channels
  82. Channel positions        : Front: L R
  83. Sampling rate          : 48.0 kHz
  84. Frame rate           : 31.250 FPS (1536 spf)
  85. Bit depth          : 16 bits
  86. Compression mode         : Lossy
  87. Stream size          : 130 MiB (1%)
  88. Title            : 6.Days.2017.1080p.BluRay.REMUX.AVC.DTS-HD.MA.5.1-FGT
  89. Language           : French
  90. Service kind         : Complete Main
  91. Default            : No
  92. Forced           : No

  93. Text #1
  94. ID             : 5
  95. Format           : PGS
  96. Muxing mode          : zlib
  97. Codec ID           : S_HDMV/PGS
  98. Codec ID/Info          : Picture based subtitle format used on BDs/HD-DVDs
  99. Title            : English-PGS
  100. Language           : English
  101. Default            : Yes
  102. Forced           : No

  103. Text #2
  104. ID             : 6
  105. Format           : PGS
  106. Muxing mode          : zlib
  107. Codec ID           : S_HDMV/PGS
  108. Codec ID/Info          : Picture based subtitle format used on BDs/HD-DVDs
  109. Title            : English-SDH-PGS
  110. Language           : English
  111. Default            : No
  112. Forced           : No

  113. Text #3
  114. ID             : 7
  115. Format           : PGS
  116. Muxing mode          : zlib
  117. Codec ID           : S_HDMV/PGS
  118. Codec ID/Info          : Picture based subtitle format used on BDs/HD-DVDs
  119. Title            : French-PGS
  120. Language           : French
  121. Default            : No
  122. Forced           : No

  123. Text #4
  124. ID             : 8
  125. Format           : PGS
  126. Muxing mode          : zlib
  127. Codec ID           : S_HDMV/PGS
  128. Codec ID/Info          : Picture based subtitle format used on BDs/HD-DVDs
  129. Title            : French-FORCED-PGS
  130. Language           : French
  131. Default            : No
  132. Forced           : No

  133. Menu
  134. 00:00:00.000         : en:Chapter 00
  135. 00:00:12.012         : en:Chapter 01
  136. 00:06:05.448         : en:Chapter 02
  137. 00:12:07.768         : en:Chapter 03
  138. 00:18:10.464         : en:Chapter 04
  139. 00:24:16.872         : en:Chapter 05
  140. 00:30:13.978         : en:Chapter 06
  141. 00:36:56.339         : en:Chapter 07
  142. 00:42:08.150         : en:Chapter 08
  143. 00:49:09.738         : en:Chapter 09
  144. 00:54:28.515         : en:Chapter 10
  145. 01:01:04.160         : en:Chapter 11
  146. 01:06:41.330         : en:Chapter 12
  147. 01:12:19.460         : en:Chapter 13
  148. 01:18:06.348         : en:Chapter 14
  149. 01:24:19.304         : en:Chapter 15
  150. 01:30:24.085         : en:Chapter 16



复制代码
复制代码
132208i35u32321o3k33k5.jpg 132208l2szvkgakvm2bcxh.jpg 132208lnhwhi50joqvognf.jpg 132208j1f1cvy5yvlvtjty.jpg 132208j891m4xzf0gsesx6.jpg 132208mr47z9gpru5usf4w.jpg





回复

使用道具 举报

懒得打字嘛,点击右侧快捷回复 【右侧内容,后台自定义】
您需要登录后才可以回帖 登录 | 立即加入

本版积分规则

Archiver| |网站地图

Copyright © 2024 Comsenz Inc. Powered by 蓝光电影网

本站内容由用户自主分享和转载自互联网,转载目的在于传递更多信息,并不代表本网赞同其观点和对其真实性负责。

如有侵权、违反国家法律政策行为,请联系我们,我们会第一时间及时清除和处理!

举报反馈邮箱:4k1080.com@gmail.com

快速回复 返回顶部 返回列表