找回密码

查看: 2730|回复: 0

[喜剧] 嗨翻姐妹行/闺蜜假期 Girls.Trip.2017.1080p.BluRay.REMUX.AVC.DTS-HD.MA.5.1-FGT 34.46GB

[复制链接]
蓝光币
1992
发表于 2017-12-21 11:12:24 | 显示全部楼层 |阅读模式
132840qhba3u86uqqq78q6.jpg
◎译  名 嗨翻姐妹行 / 闺蜜假期 / 姐妹行
◎片  名 嗨翻姐妹行 Girls Trip
◎年  代 2017
◎国  家 美国
◎类  别 笑剧
◎语  言 英语
◎上映日期 2017-07-21(美国)
◎IMDb评分6.7/10 from 7,641 users
◎IMDb链接http://www.imdb.com/title/tt3564472/
◎豆瓣评分 7.1/10 from 164 users
◎豆瓣链接 https://movie.douban.com/subject/26964234/
◎片  长 122分钟
◎导  演 马尔科姆·D·李
◎主  演 雷吉娜·赫尔 Regina Hall
      奎恩·拉提法 Queen Latifah
      贾达·萍克·史姑娘 Jada Pinkett Smith
      蒂凡尼·哈迪斯 Tiffany Haddish
      拉伦兹·泰特 Larenz Tate
      麦克·柯尔特 Mike Colter
      凯特·沃什 Kate Walsh
      科菲·斯里博伊 Kofi Siriboe
      拉腊·格赖斯 Lara Grice
      黛博拉·艾里德 Deborah Ayorinde
      珍妮琳·海因斯 Janeline Hayes
      怀尔德·韦恩 Wild Wayne
      珊妮·霍斯汀 Sunny Hostin
      尼克·瑟曼 Nick Mundy
      瑞奇·韦恩 Ricky Wayne

◎简  介 

  影片报告了四位好姐妹一路去新奥尔良加入音乐节,姐妹们的热情被重新扑灭后一路歌舞和疯狂的故事。



  1. Video
  2. ID             : 1
  3. Format           : AVC
  4. Format/Info          : Advanced Video Codec
  5. Format profile         : [email]High@L4.1[/email]
  6. Format settings, CABAC       : Yes
  7. Format settings, ReFrames      : 4 frames
  8. Codec ID           : V_MPEG4/ISO/AVC
  9. Duration           : 2 h 2 min
  10. Bit rate mode          : Variable
  11. Maximum bit rate         : 37.0 Mb/s
  12. Width            : 1 920 pixels
  13. Height           : 1 080 pixels
  14. Display aspect ratio       : 16:9
  15. Frame rate mode        : Constant
  16. Frame rate           : 23.976 (24000/1001) FPS
  17. Color space          : YUV
  18. Chroma subsampling       : 4:2:0
  19. Bit depth          : 8 bits
  20. Scan type          : Progressive
  21. Language           : English
  22. Default            : No
  23. Forced           : No

  24. Audio #1
  25. ID             : 2
  26. Format           : DTS
  27. Format/Info          : Digital Theater Systems
  28. Format profile         : MA / Core
  29. Mode             : 16
  30. Format settings, Endianness    : Big
  31. Codec ID           : A_DTS
  32. Duration           : 2 h 2 min
  33. Bit rate mode          : Variable / Constant
  34. Bit rate           : Unknown / 1 509 kb/s
  35. Channel(s)           : 6 channels
  36. Channel positions        : Front: L C R, Side: L R, LFE
  37. Sampling rate          : 48.0 kHz
  38. Frame rate           : 93.750 FPS (512 spf)
  39. Bit depth          : 24 bits
  40. Compression mode         : Lossless / Lossy
  41. Title            : Surround 5.1
  42. Language           : English
  43. Default            : Yes
  44. Forced           : No

  45. Audio #2
  46. ID             : 3
  47. Format           : DTS
  48. Format/Info          : Digital Theater Systems
  49. Mode             : 16
  50. Format settings, Endianness    : Big
  51. Codec ID           : A_DTS
  52. Duration           : 2 h 2 min
  53. Bit rate mode          : Constant
  54. Bit rate           : 1 509 kb/s
  55. Channel(s)           : 6 channels
  56. Channel positions        : Front: L C R, Side: L R, LFE
  57. Sampling rate          : 48.0 kHz
  58. Frame rate           : 93.750 FPS (512 spf)
  59. Bit depth          : 24 bits
  60. Compression mode         : Lossy
  61. Stream size          : 1.29GB (4%)
  62. Title            : Surround 5.1
  63. Language           : English
  64. Default            : No
  65. Forced           : No

  66. Audio #3
  67. ID             : 4
  68. Format           : DTS
  69. Format/Info          : Digital Theater Systems
  70. Mode             : 16
  71. Format settings, Endianness    : Big
  72. Codec ID           : A_DTS
  73. Duration           : 2 h 2 min
  74. Bit rate mode          : Constant
  75. Bit rate           : 768 kb/s
  76. Channel(s)           : 6 channels
  77. Channel positions        : Front: L C R, Side: L R, LFE
  78. Sampling rate          : 48.0 kHz
  79. Frame rate           : 93.750 FPS (512 spf)
  80. Bit depth          : 24 bits
  81. Compression mode         : Lossy
  82. Stream size          : 670 MiB (2%)
  83. Title            : Surround 5.1
  84. Language           : Spanish
  85. Default            : No
  86. Forced           : No

  87. Audio #4
  88. ID             : 5
  89. Format           : AC-3
  90. Format/Info          : Audio Coding 3
  91. Mode             : Dolby Digital
  92. Format settings, Endianness    : Big
  93. Codec ID           : A_AC3
  94. Duration           : 2 h 2 min
  95. Bit rate mode          : Constant
  96. Bit rate           : 192 kb/s
  97. Channel(s)           : 2 channels
  98. Channel positions        : Front: L R
  99. Sampling rate          : 48.0 kHz
  100. Frame rate           : 31.250 FPS (1536 spf)
  101. Bit depth          : 16 bits
  102. Compression mode         : Lossy
  103. Stream size          : 168 MiB (0%)
  104. Title            : Stereo
  105. Language           : English
  106. Service kind         : Complete Main
  107. Default            : No
  108. Forced           : No

  109. Audio #5
  110. ID             : 6
  111. Format           : AC-3
  112. Format/Info          : Audio Coding 3
  113. Mode             : Dolby Digital
  114. Format settings, Endianness    : Big
  115. Codec ID           : A_AC3
  116. Duration           : 2 h 2 min
  117. Bit rate mode          : Constant
  118. Bit rate           : 192 kb/s
  119. Channel(s)           : 2 channels
  120. Channel positions        : Front: L R
  121. Sampling rate          : 48.0 kHz
  122. Frame rate           : 31.250 FPS (1536 spf)
  123. Bit depth          : 16 bits
  124. Compression mode         : Lossy
  125. Stream size          : 168 MiB (0%)
  126. Title            : Stereo
  127. Language           : English
  128. Service kind         : Complete Main
  129. Default            : No
  130. Forced           : No

  131. Text #1
  132. ID             : 7
  133. Format           : PGS
  134. Muxing mode          : zlib
  135. Codec ID           : S_HDMV/PGS
  136. Codec ID/Info          : Picture based subtitle format used on BDs/HD-DVDs
  137. Title            : English-PGS
  138. Language           : English
  139. Default            : Yes
  140. Forced           : No

  141. Text #2
  142. ID             : 8
  143. Format           : PGS
  144. Muxing mode          : zlib
  145. Codec ID           : S_HDMV/PGS
  146. Codec ID/Info          : Picture based subtitle format used on BDs/HD-DVDs
  147. Title            : Spanish-PGS
  148. Language           : Spanish
  149. Default            : No
  150. Forced           : No

  151. Text #3
  152. ID             : 9
  153. Format           : PGS
  154. Muxing mode          : zlib
  155. Codec ID           : S_HDMV/PGS
  156. Codec ID/Info          : Picture based subtitle format used on BDs/HD-DVDs
  157. Title            : French-PGS
  158. Language           : French
  159. Default            : No
  160. Forced           : No

  161. Text #4
  162. ID             : 10
  163. Format           : PGS
  164. Muxing mode          : zlib
  165. Codec ID           : S_HDMV/PGS
  166. Codec ID/Info          : Picture based subtitle format used on BDs/HD-DVDs
  167. Title            : Spanish-FORCED-PGS
  168. Language           : Spanish
  169. Default            : No
  170. Forced           : No

  171. Menu
  172. 00:00:00.000         : en:Chapter 01
  173. 00:04:14.712         : en:Chapter 02
  174. 00:12:47.141         : en:Chapter 03
  175. 00:18:08.087         : en:Chapter 04
  176. 00:22:40.108         : en:Chapter 05
  177. 00:30:02.217         : en:Chapter 06
  178. 00:36:27.101         : en:Chapter 07
  179. 00:43:18.470         : en:Chapter 08
  180. 00:50:29.526         : en:Chapter 09
  181. 00:56:26.841         : en:Chapter 10
  182. 01:03:39.524         : en:Chapter 11
  183. 01:12:59.375         : en:Chapter 12
  184. 01:18:54.646         : en:Chapter 13
  185. 01:24:32.901         : en:Chapter 14
  186. 01:30:52.947         : en:Chapter 15
  187. 01:34:53.479         : en:Chapter 16
  188. 01:41:26.371         : en:Chapter 17
  189. 01:46:06.568         : en:Chapter 18
  190. 01:53:52.158         : en:Chapter 19
  191. 01:58:37.443         : en:Chapter 20



复制代码
复制代码
132840llpcz31xppbpbp10.jpg 132840rxmab3e3xsa8nk81.jpg 132840irl8e874ouuz4vo1.jpg 132840zyigygwr02j0g54v.jpg 132840ctdm1vgvaggaqw14.jpg 132840ap304363jrfho3d6.jpg

                                



回复

使用道具 举报

懒得打字嘛,点击右侧快捷回复 【右侧内容,后台自定义】
您需要登录后才可以回帖 登录 | 立即加入

本版积分规则

Archiver| |网站地图

Copyright © 2024 Comsenz Inc. Powered by 蓝光电影网

本站内容由用户自主分享和转载自互联网,转载目的在于传递更多信息,并不代表本网赞同其观点和对其真实性负责。

如有侵权、违反国家法律政策行为,请联系我们,我们会第一时间及时清除和处理!

举报反馈邮箱:4k1080.com@gmail.com

快速回复 返回顶部 返回列表