找回密码

查看: 3212|回复: 4

[悬疑] 安娜贝尔2:诞生/安娜贝尔:造孽 Annabelle.Creation.2017.1080p.BluRay.REMUX.AVC.DTS-HD.MA.TrueHD.7.1.Atmos-FGT 28.78GB

[复制链接]
蓝光币
1982
发表于 2017-12-21 11:17:57 | 显示全部楼层 |阅读模式
133856ke6z8r5ez583zoyg.jpg
◎译  名 安娜贝尔2:诞生 / 安娜贝尔:不法 / 诡娃安娜贝尔:不法 / 安娜贝尔2:缔造物
◎片  名 安娜贝尔2:诞生 Annabelle: Creation
◎年  代 2017
◎国  家 美国
◎类  别 悬疑 / 惊悚 / 可骇
◎语  言 英语
◎上映日期 2017-08-11(美国)
◎IMDb评分6.7/10 from 43,540 users
◎IMDb链接http://www.imdb.com/title/tt5140878/
◎豆瓣评分 6.4/10 from 9127 users
◎豆瓣链接 https://movie.douban.com/subject/26644205/
◎片  长 109分钟
◎导  演 大卫·F·桑德伯格
◎主  演 斯黛芬妮·西格曼 Stephanie Sigman
      特丽莎·贝特曼 Talitha Bateman
      露露·威尔逊 Lulu Wilson
      米兰达·奥图 Miranda Otto
      安东尼·拉帕格利亚 Anthony LaPaglia
      艾丽西娅·维拉-贝利 Alicia Vela-Bailey
      格蕾丝·富尔顿 Grace Fulton
      萨马拉·李 Samara Lee
      菲利帕·库特哈德 Philippa Coulthard
      约瑟夫·比沙拉 Joseph Bishara
      凯莉·奥马利 Kerry O'Malley
      布莱恩·豪威Brian Howe
      亚当·巴特利 Adam Bartley
      洛塔·洛森 Lotta Losten
      布拉德·格林奎斯特 Brad Greenquist
      泰勒·巴克 Tayler Buck
      马克·布拉姆霍尔 Mark Bramhall
      利亚姆·詹姆斯·拉莫斯 Liam James Ramos
      卢·卢·萨夫兰 Lou Lou Safran
      泰勒·A·约翰逊 Tyler A. Johnson
      卡拉莱·奥斯汀 Karalee Austin

◎简  介 

  塞缪尔·穆林斯(安东尼·拉帕格利亚饰)和埃丝特·穆林斯(米兰达·奥图饰)是一对夫妻,他们有个很是心爱的女儿,一家人幸运地生活在美国中西部地域,但随着女儿安娜贝尔(萨玛拉·李饰)在一场车祸中不幸丧生,这个家庭堕入了悲痛当中,穆林斯佳耦也渐渐与世隔断。
  多年后,夫妻俩决议把自家的屋子用作孤儿院,收留修女夏洛特(斯黛芬尼·西格曼饰)收养的孩子们,名叫J珍妮丝和琳达的小朋友不听劝闯进了安娜贝尔本来的房间,激发了一系列诡异而可骇的事务 。



  1. Video
  2. ID             : 1
  3. Format           : AVC
  4. Format/Info          : Advanced Video Codec
  5. Format profile         : [email]High@L4.1[/email]
  6. Format settings, CABAC       : Yes
  7. Format settings, ReFrames      : 4 frames
  8. Codec ID           : V_MPEG4/ISO/AVC
  9. Duration           : 1 h 49 min
  10. Bit rate mode          : Variable
  11. Maximum bit rate         : 32.0 Mb/s
  12. Width            : 1 920 pixels
  13. Height           : 1 080 pixels
  14. Display aspect ratio       : 16:9
  15. Frame rate mode        : Constant
  16. Frame rate           : 23.976 (24000/1001) FPS
  17. Color space          : YUV
  18. Chroma subsampling       : 4:2:0
  19. Bit depth          : 8 bits
  20. Scan type          : Progressive
  21. Title            : Annabelle.Creation.2017.1080p.BluRay.REMUX.AVC.DTS-HD.MA.TrueHD.7.1.Atmos-FGT
  22. Language           : English
  23. Default            : No
  24. Forced           : No

  25. Audio #1
  26. ID             : 2
  27. Format           : TrueHD
  28. Format profile         : TrueHD+Atmos / TrueHD
  29. Codec ID           : A_TRUEHD
  30. Bit rate mode          : Variable
  31. Maximum bit rate         : 6 840 kb/s
  32. Channel(s)           : Object Based / 8 channels
  33. Channel positions        : Object Based / Front: L C R, Side: L R, Back: L R, LFE
  34. Sampling rate          :/ 48.0 kHz
  35. Frame rate           : 1 200.000 FPS (40 spf)
  36. Compression mode         : Lossless
  37. Title            : Annabelle.Creation.2017.1080p.BluRay.REMUX.AVC.DTS-HD.MA.TrueHD.7.1.Atmos-FGT
  38. Language           : English
  39. Default            : Yes
  40. Forced           : No

  41. Audio #2
  42. ID             : 3
  43. Format           : DTS
  44. Format/Info          : Digital Theater Systems
  45. Format profile         : MA / Core
  46. Mode             : 16
  47. Format settings, Endianness    : Big
  48. Codec ID           : A_DTS
  49. Duration           : 1 h 49 min
  50. Bit rate mode          : Variable / Constant
  51. Bit rate           : Unknown / 1 509 kb/s
  52. Channel(s)           : 8 channels / 6 channels
  53. Channel positions        : Front: L C R, Side: L R, Back: L R, LFE / Front: L C R, Side: L R, LFE
  54. Sampling rate          : 48.0 kHz
  55. Frame rate           : 93.750 FPS (512 spf)
  56. Bit depth          : 24 bits
  57. Compression mode         : Lossless / Lossy
  58. Title            : Annabelle.Creation.2017.1080p.BluRay.REMUX.AVC.DTS-HD.MA.TrueHD.7.1.Atmos-FGT
  59. Language           : English
  60. Default            : No
  61. Forced           : No

  62. Audio #3
  63. ID             : 4
  64. Format           : AC-3
  65. Format/Info          : Audio Coding 3
  66. Format settings, Endianness    : Big
  67. Codec ID           : A_AC3
  68. Duration           : 1 h 49 min
  69. Bit rate mode          : Constant
  70. Bit rate           : 448 kb/s
  71. Channel(s)           : 6 channels
  72. Channel positions        : Front: L C R, Side: L R, LFE
  73. Sampling rate          : 48.0 kHz
  74. Frame rate           : 31.250 FPS (1536 spf)
  75. Bit depth          : 16 bits
  76. Compression mode         : Lossy
  77. Stream size          : 352 MiB (1%)
  78. Title            : Annabelle.Creation.2017.1080p.BluRay.REMUX.AVC.DTS-HD.MA.TrueHD.7.1.Atmos-FGT
  79. Language           : English
  80. Service kind         : Complete Main
  81. Default            : No
  82. Forced           : No

  83. Audio #4
  84. ID             : 5
  85. Format           : AC-3
  86. Format/Info          : Audio Coding 3
  87. Format settings, Endianness    : Big
  88. Codec ID           : A_AC3
  89. Duration           : 1 h 49 min
  90. Bit rate mode          : Constant
  91. Bit rate           : 640 kb/s
  92. Channel(s)           : 6 channels
  93. Channel positions        : Front: L C R, Side: L R, LFE
  94. Sampling rate          : 48.0 kHz
  95. Frame rate           : 31.250 FPS (1536 spf)
  96. Bit depth          : 16 bits
  97. Compression mode         : Lossy
  98. Stream size          : 502 MiB (2%)
  99. Title            : Annabelle.Creation.2017.1080p.BluRay.REMUX.AVC.DTS-HD.MA.TrueHD.7.1.Atmos-FGT
  100. Language           : English
  101. Service kind         : Complete Main
  102. Default            : No
  103. Forced           : No

  104. Audio #5
  105. ID             : 6
  106. Format           : AC-3
  107. Format/Info          : Audio Coding 3
  108. Format settings, Endianness    : Big
  109. Codec ID           : A_AC3
  110. Duration           : 1 h 49 min
  111. Bit rate mode          : Constant
  112. Bit rate           : 640 kb/s
  113. Channel(s)           : 6 channels
  114. Channel positions        : Front: L C R, Side: L R, LFE
  115. Sampling rate          : 48.0 kHz
  116. Frame rate           : 31.250 FPS (1536 spf)
  117. Bit depth          : 16 bits
  118. Compression mode         : Lossy
  119. Stream size          : 502 MiB (2%)
  120. Title            : Annabelle.Creation.2017.1080p.BluRay.REMUX.AVC.DTS-HD.MA.TrueHD.7.1.Atmos-FGT
  121. Language           : French
  122. Service kind         : Complete Main
  123. Default            : No
  124. Forced           : No

  125. Audio #6
  126. ID             : 7
  127. Format           : AC-3
  128. Format/Info          : Audio Coding 3
  129. Format settings, Endianness    : Big
  130. Codec ID           : A_AC3
  131. Duration           : 1 h 49 min
  132. Bit rate mode          : Constant
  133. Bit rate           : 640 kb/s
  134. Channel(s)           : 6 channels
  135. Channel positions        : Front: L C R, Side: L R, LFE
  136. Sampling rate          : 48.0 kHz
  137. Frame rate           : 31.250 FPS (1536 spf)
  138. Bit depth          : 16 bits
  139. Compression mode         : Lossy
  140. Stream size          : 502 MiB (2%)
  141. Title            : Annabelle.Creation.2017.1080p.BluRay.REMUX.AVC.DTS-HD.MA.TrueHD.7.1.Atmos-FGT
  142. Language           : Spanish
  143. Service kind         : Complete Main
  144. Default            : No
  145. Forced           : No

  146. Audio #7
  147. ID             : 8
  148. Format           : AC-3
  149. Format/Info          : Audio Coding 3
  150. Format settings, Endianness    : Big
  151. Codec ID           : A_AC3
  152. Duration           : 1 h 49 min
  153. Bit rate mode          : Constant
  154. Bit rate           : 640 kb/s
  155. Channel(s)           : 6 channels
  156. Channel positions        : Front: L C R, Side: L R, LFE
  157. Sampling rate          : 48.0 kHz
  158. Frame rate           : 31.250 FPS (1536 spf)
  159. Bit depth          : 16 bits
  160. Compression mode         : Lossy
  161. Stream size          : 502 MiB (2%)
  162. Title            : Annabelle.Creation.2017.1080p.BluRay.REMUX.AVC.DTS-HD.MA.TrueHD.7.1.Atmos-FGT
  163. Language           : Portuguese
  164. Service kind         : Complete Main
  165. Default            : No
  166. Forced           : No

  167. Audio #8
  168. ID             : 9
  169. Format           : AC-3
  170. Format/Info          : Audio Coding 3
  171. Mode             : Dolby Digital
  172. Format settings, Endianness    : Big
  173. Codec ID           : A_AC3
  174. Duration           : 1 h 49 min
  175. Bit rate mode          : Constant
  176. Bit rate           : 192 kb/s
  177. Channel(s)           : 2 channels
  178. Channel positions        : Front: L R
  179. Sampling rate          : 48.0 kHz
  180. Frame rate           : 31.250 FPS (1536 spf)
  181. Bit depth          : 16 bits
  182. Compression mode         : Lossy
  183. Stream size          : 151 MiB (1%)
  184. Title            : Annabelle.Creation.2017.1080p.BluRay.REMUX.AVC.DTS-HD.MA.TrueHD.7.1.Atmos-FGT
  185. Language           : English
  186. Service kind         : Complete Main
  187. Default            : No
  188. Forced           : No

  189. Text #1
  190. ID             : 10
  191. Format           : PGS
  192. Muxing mode          : zlib
  193. Codec ID           : S_HDMV/PGS
  194. Codec ID/Info          : Picture based subtitle format used on BDs/HD-DVDs
  195. Title            : English-PGS
  196. Language           : English
  197. Default            : Yes
  198. Forced           : No

  199. Text #2
  200. ID             : 11
  201. Format           : PGS
  202. Muxing mode          : zlib
  203. Codec ID           : S_HDMV/PGS
  204. Codec ID/Info          : Picture based subtitle format used on BDs/HD-DVDs
  205. Title            : French-PGS
  206. Language           : French
  207. Default            : No
  208. Forced           : No

  209. Text #3
  210. ID             : 12
  211. Format           : PGS
  212. Muxing mode          : zlib
  213. Codec ID           : S_HDMV/PGS
  214. Codec ID/Info          : Picture based subtitle format used on BDs/HD-DVDs
  215. Title            : Spanish-PGS
  216. Language           : Spanish
  217. Default            : No
  218. Forced           : No

  219. Text #4
  220. ID             : 13
  221. Format           : PGS
  222. Muxing mode          : zlib
  223. Codec ID           : S_HDMV/PGS
  224. Codec ID/Info          : Picture based subtitle format used on BDs/HD-DVDs
  225. Title            : Portuguese-PGS
  226. Language           : Portuguese
  227. Default            : No
  228. Forced           : No

  229. Text #5
  230. ID             : 14
  231. Format           : PGS
  232. Muxing mode          : zlib
  233. Codec ID           : S_HDMV/PGS
  234. Codec ID/Info          : Picture based subtitle format used on BDs/HD-DVDs
  235. Title            : French-FORCED-PGS
  236. Language           : French
  237. Default            : No
  238. Forced           : No

  239. Text #6
  240. ID             : 15
  241. Format           : PGS
  242. Muxing mode          : zlib
  243. Codec ID           : S_HDMV/PGS
  244. Codec ID/Info          : Picture based subtitle format used on BDs/HD-DVDs
  245. Title            : Spanish-FORCED-PGS
  246. Language           : Spanish
  247. Default            : No
  248. Forced           : No

  249. Text #7
  250. ID             : 16
  251. Format           : PGS
  252. Muxing mode          : zlib
  253. Codec ID           : S_HDMV/PGS
  254. Codec ID/Info          : Picture based subtitle format used on BDs/HD-DVDs
  255. Title            : Portuguese-FORCED-PGS
  256. Language           : Portuguese
  257. Default            : No
  258. Forced           : No

  259. Menu
  260. 00:00:00.000         : en:Chapter 01
  261. 00:11:25.351         : en:Chapter 02
  262. 00:20:35.067         : en:Chapter 03
  263. 00:30:33.289         : en:Chapter 04
  264. 00:42:03.604         : en:Chapter 05
  265. 00:52:39.239         : en:Chapter 06
  266. 01:03:12.497         : en:Chapter 07
  267. 01:13:14.681         : en:Chapter 08
  268. 01:23:55.613         : en:Chapter 09
  269. 01:33:19.302         : en:Chapter 10
  270. 01:43:27.618         : en:Chapter 11



复制代码
复制代码
133856cbrzk41ua8k5i9po.jpg 133856vxkj2vrqyx1wjtz2.jpg 133856ejudddhjsdiha0ws.jpg 133856gtjj3ekt1s00f900.jpg 133856kbevt6k1g2rx99ob.jpg 133856ivvkypon5vzodv03.jpg

                                




回复

使用道具 举报

蓝光币
48
发表于 2018-9-23 01:53:24 | 显示全部楼层
这么好的电影,必须支持
回复

使用道具 举报

蓝光币
0
发表于 2019-7-17 16:27:46 | 显示全部楼层

我看不错噢 谢谢楼主!蓝光电影网越来越好!
回复

使用道具 举报

蓝光币
0
发表于 2019-7-17 16:32:30 | 显示全部楼层

感谢楼主的无私分享!要想蓝光电影网好 就靠你我他
回复

使用道具 举报

蓝光币
0
发表于 2019-7-17 16:34:41 | 显示全部楼层

楼主,大恩不言谢了!蓝光电影网是最棒的!
回复

使用道具 举报

懒得打字嘛,点击右侧快捷回复 【右侧内容,后台自定义】
您需要登录后才可以回帖 登录 | 立即加入

本版积分规则

Archiver| |网站地图

Copyright © 2024 Comsenz Inc. Powered by 蓝光电影网

本站内容由用户自主分享和转载自互联网,转载目的在于传递更多信息,并不代表本网赞同其观点和对其真实性负责。

如有侵权、违反国家法律政策行为,请联系我们,我们会第一时间及时清除和处理!

举报反馈邮箱:4k1080.com@gmail.com

快速回复 返回顶部 返回列表