找回密码

查看: 3073|回复: 5

天使与魔鬼/达芬奇密码前传之天使与恶魔 Angels.and.Demons.2009.2160p.BluRay.x265.10bit.SDR.DTS-HD.MA.TrueHD.7.1.Atmos-SWTYBLZ 40.27GB

[复制链接]
蓝光币
1971
发表于 2017-12-21 20:31:55 | 显示全部楼层 |阅读模式
天使与魔鬼/达芬奇密码前传之天使与恶魔 Angels.and.Demons.2009.2160p.BluRay.x265.10bit.SDR.DTS-HD.MA.TrueHD.7.1.Atmos-SWTYBLZ 40.27GB-1.jpg
◎译  名 天使与魔鬼/达芬奇密码前传之天使与恶魔
◎片  名 Angels & Demons
◎年  代 2009
◎产  地 美国/意大利
◎类  别 悬疑/惊悚
◎语  言 英语/意大利语/拉丁语/法语/瑞士德语/德语/西班牙语
◎上映日期 2009-05-15(美国)
◎IMDb评分  6.7/10 from 235,506 users
◎IMDb链接  http://www.imdb.com/title/tt0808151/
◎豆瓣评分 7.2/10 from 75,514 users
◎豆瓣链接 https://movie.douban.com/subject/1927369/
◎片  长 138分钟/146分钟(加长版)
◎导  演 朗·霍华德 Ron Howard
◎主  演 汤姆·汉克斯 Tom Hanks
      伊万·麦克格雷格 Ewan McGregor
      阿耶莱特·祖里尔 Ayelet Zurer
      斯特兰·斯卡斯加德 Stellan Skarsg?rd
      皮尔弗朗西斯科·法维诺 Pierfrancesco Favino
      尼古拉·雷·卡斯 Nikolaj Lie Kaas
      阿明·缪勒-斯塔尔 Armin Mueller-Stahl
      托尔·林德哈特 Thure Lindhardt
      大卫·帕斯奎斯 David Pasquesi
      科西莫·福斯科 Cosimo Fusco
      维克多·阿尔菲 Victor Alfieri
      科特·罗文斯 Curt Lowens
      鲍勃·耶基斯 Bob Yerkes

◎简  介

  本片按照美国畅销作家丹?布朗的同名小说改编。欧洲核子中心的科学家维多利亚?维特勒(阿耶莱特?祖瑞尔 Ayelet Zurer 饰)与父亲在高速粒子对撞机尝试中收集到了反物资,却发现父亲遇害,尸身胸口被烙“光照派”标记,高爆炸性的反物资被偷走,出现在正待选新教皇的罗马梵蒂冈,威胁天主教廷及全部罗马的安危。于此同时,四位首要教皇候选人的红衣主教奥秘失落。在教皇内侍(伊万?麦克格雷格 Ewan McGregor 饰)的授意下,哈佛大学的标记学专家罗伯特?兰登教授和维多利亚都被请到梵蒂冈辅佐罗马差人展开搜寻行动。兰登压服罗马总捕快奥利维迪(皮耶法兰西斯柯?法维诺Pierfrancesco Favino 饰)依照“土、气、火、水”的提醒在罗马的胜景教堂间与“光照派”展开了时候战……

◎获奖情况

  第11届美国青少年挑选奖  (2009)
  最好剧情片(提名)
  最好暑期剧情片(提名)



  1. Video
  2. ID                                       : 1
  3. Format                                   : HEVC
  4. Format/Info                              : High Efficiency Video Coding
  5. Format profile                           : Main [url=mailto:10@L5.1]10@L5.1[/url]@High
  6. Codec ID                                 : V_MPEGH/ISO/HEVC
  7. Duration                                 : 2 h 18 min
  8. Bit rate                                 : 31.5 Mb/s
  9. Width                                    : 3 840 pixels
  10. Height                                   : 1 600 pixels
  11. Display aspect ratio                     : 2.40:1
  12. Frame rate mode                          : Constant
  13. Frame rate                               : 23.976 (24000/1001) FPS
  14. Color space                              : YUV
  15. Chroma subsampling                       : 4:2:0
  16. Bit depth                                : 10 bits
  17. Bits/(Pixel*Frame)                       : 0.214
  18. Stream size                              : 30.5GB (76%)
  19. Title                                    : Angels.and.Demons.2009.2160p.BluRay.x265.10bit.SDR.DTS-HD.MA.TrueHD.7.1.Atmos-SWTYBLZ
  20. Writing library                          : x265 2.5+4-b4a5bcfe29c7:[Windows][GCC 4.9.3][64 bit] 10bit
  21. Encoding settings                        : cpuid=1173503 / frame-threads=16 / numa-pools=20 / wpp / no-pmode / no-pme / no-psnr / no-ssim / log-level=2 / input-csp=1 / input-res=3840x1600 / interlace=0 / total-frames=0 / level-idc=51 / high-tier=1 / uhd-bd=0 / ref=3 / no-allow-non-conformance / repeat-headers / annexb / aud / hrd / info / hash=0 / no-temporal-layers / no-open-gop / min-keyint=1 / keyint=24 / bframes=4 / b-adapt=2 / b-pyramid / bframe-bias=0 / rc-lookahead=25 / lookahead-slices=4 / scenecut=40 / no-intra-refresh / ctu=64 / min-cu-size=8 / no-rect / no-amp / max-tu-size=32 / tu-inter-depth=1 / tu-intra-depth=1 / limit-tu=0 / rdoq-level=0 / dynamic-rd=0.00 / no-ssim-rd / signhide / no-tskip / nr-intra=0 / nr-inter=0 / no-constrained-intra / strong-intra-smoothing / max-merge=2 / limit-refs=3 / no-limit-modes / me=1 / subme=2 / merange=57 / temporal-mvp / weightp / no-weightb / no-analyze-src-pics / deblock=0:0 / no-sao / no-sao-non-deblock / rd=3 / no-early-skip / rskip / no-fast-intra / no-tskip-fast / no-cu-lossless / no-b-intra / rdpenalty=0 / psy-rd=2.00 / psy-rdoq=0.00 / no-rd-refine / analysis-reuse-mode=0 / no-lossless / cbqpoffs=0 / crqpoffs=0 / rc=crf / crf=16.0 / qcomp=0.60 / qpstep=4 / stats-write=0 / stats-read=0 / vbv-maxrate=160000 / vbv-bufsize=160000 / vbv-init=0.9 / crf-max=0.0 / crf-min=0.0 / ipratio=1.40 / pbratio=1.30 / aq-mode=1 / aq-strength=1.00 / cutree / zone-count=0 / no-strict-cbr / qg-size=32 / no-rc-grain / qpmax=69 / qpmin=0 / no-const-vbv / sar=1 / overscan=0 / videoformat=5 / range=0 / colorprim=2 / transfer=2 / colormatrix=2 / chromaloc=0 / display-window=0 / max-cll=0,0 / min-luma=0 / max-luma=1023 / log2-max-poc-lsb=8 / vui-timing-info / vui-hrd-info / slices=1 / opt-qp-pps / opt-ref-list-length-pps / no-multi-pass-opt-rps / scenecut-bias=0.05 / no-opt-cu-delta-qp / no-aq-motion / no-hdr / no-hdr-opt / no-dhdr10-opt / analysis-reuse-level=5 / scale-factor=0 / refine-intra=0 / refine-inter=0 / refine-mv=0 / no-limit-sao / ctu-info=0
  22. Default                                  : Yes
  23. Forced                                   : No

  24. Audio #1
  25. ID                                       : 2
  26. Format                                   : TrueHD
  27. Format profile                           : TrueHD+Atmos / TrueHD
  28. Codec ID                                 : A_TRUEHD
  29. Duration                                 : 2 h 18 min
  30. Bit rate mode                            : Variable
  31. Bit rate                                 : 4 913 kb/s
  32. Maximum bit rate                         : 8 085 kb/s
  33. Channel(s)                               : Object Based / 8 channels
  34. Channel positions                        : Object Based / Front: L C R, Side: L R, Back: L R, LFE
  35. Sampling rate                            :  / 48.0 kHz
  36. Frame rate                               : 1 200.000 FPS (40 SPF)
  37. Compression mode                         : Lossless
  38. Stream size                              : 4.76GB (12%)
  39. Title                                    : Angels.and.Demons.2009.2160p.BluRay.x265.10bit.SDR.DTS-HD.MA.TrueHD.7.1.Atmos-SWTYBLZ
  40. Language                                 : English
  41. Default                                  : Yes
  42. Forced                                   : No

  43. Audio #2
  44. ID                                       : 3
  45. Format                                   : DTS
  46. Format/Info                              : Digital Theater Systems
  47. Format profile                           : MA / Core
  48. Codec ID                                 : A_DTS
  49. Duration                                 : 2 h 18 min
  50. Bit rate mode                            : Variable / Constant
  51. Bit rate                                 : 4 024 kb/s / 1 509 kb/s
  52. Channel(s)                               : 8 channels / 6 channels
  53. Channel positions                        : Front: L C R, Side: L R, Back: L R, LFE / Front: L C R, Side: L R, LFE
  54. Sampling rate                            : 48.0 kHz
  55. Frame rate                               : 93.750 FPS (512 SPF)
  56. Bit depth                                : 24 bits
  57. Compression mode                         : Lossless / Lossy
  58. Stream size                              : 3.90GB (10%)
  59. Title                                    : Angels.and.Demons.2009.2160p.BluRay.x265.10bit.SDR.DTS-HD.MA.TrueHD.7.1.Atmos-SWTYBLZ
  60. Language                                 : English
  61. Default                                  : No
  62. Forced                                   : No

  63. Audio #3
  64. ID                                       : 4
  65. Format                                   : AC-3
  66. Format/Info                              : Audio Coding 3
  67. Codec ID                                 : A_AC3
  68. Duration                                 : 2 h 18 min
  69. Bit rate mode                            : Constant
  70. Bit rate                                 : 640 kb/s
  71. Channel(s)                               : 6 channels
  72. Channel positions                        : Front: L C R, Side: L R, LFE
  73. Sampling rate                            : 48.0 kHz
  74. Frame rate                               : 31.250 FPS (1536 SPF)
  75. Bit depth                                : 16 bits
  76. Compression mode                         : Lossy
  77. Stream size                              : 635 MiB (2%)
  78. Title                                    : Angels.and.Demons.2009.2160p.BluRay.x265.10bit.SDR.DTS-HD.MA.TrueHD.7.1.Atmos-SWTYBLZ
  79. Language                                 : English
  80. Service kind                             : Complete Main
  81. Default                                  : No
  82. Forced                                   : No

  83. Text #1
  84. ID                                       : 5
  85. Format                                   : UTF-8
  86. Codec ID                                 : S_TEXT/UTF8
  87. Codec ID/Info                            : UTF-8 Plain Text
  88. Duration                                 : 2 h 7 min
  89. Bit rate                                 : 53 b/s
  90. Count of elements                        : 1326
  91. Stream size                              : 50.0 KiB (0%)
  92. Title                                    : English-SRT
  93. Language                                 : English
  94. Default                                  : Yes
  95. Forced                                   : No

  96. Text #2
  97. ID                                       : 6
  98. Format                                   : PGS
  99. Muxing mode                              : zlib
  100. Codec ID                                 : S_HDMV/PGS
  101. Codec ID/Info                            : Picture based subtitle format used on BDs/HD-DVDs
  102. Duration                                 : 2 h 11 min
  103. Bit rate                                 : 36.8 kb/s
  104. Count of elements                        : 3146
  105. Stream size                              : 34.7 MiB (0%)
  106. Title                                    : English-PGS
  107. Language                                 : English
  108. Default                                  : No
  109. Forced                                   : No

  110. Text #3
  111. ID                                       : 7
  112. Format                                   : PGS
  113. Muxing mode                              : zlib
  114. Codec ID                                 : S_HDMV/PGS
  115. Codec ID/Info                            : Picture based subtitle format used on BDs/HD-DVDs
  116. Duration                                 : 2 h 7 min
  117. Bit rate                                 : 33.5 kb/s
  118. Count of elements                        : 2636
  119. Stream size                              : 30.6 MiB (0%)
  120. Title                                    : English-SDH-PGS
  121. Language                                 : English
  122. Default                                  : No
  123. Forced                                   : No

  124. Text #4
  125. ID                                       : 8
  126. Format                                   : PGS
  127. Muxing mode                              : zlib
  128. Codec ID                                 : S_HDMV/PGS
  129. Codec ID/Info                            : Picture based subtitle format used on BDs/HD-DVDs
  130. Duration                                 : 2 h 11 min
  131. Bit rate                                 : 36.8 kb/s
  132. Count of elements                        : 3144
  133. Stream size                              : 34.6 MiB (0%)
  134. Title                                    : English-PGS
  135. Language                                 : English
  136. Default                                  : No
  137. Forced                                   : No

  138. Text #5
  139. ID                                       : 9
  140. Format                                   : PGS
  141. Muxing mode                              : zlib
  142. Codec ID                                 : S_HDMV/PGS
  143. Codec ID/Info                            : Picture based subtitle format used on BDs/HD-DVDs
  144. Duration                                 : 2 h 7 min
  145. Bit rate                                 : 33.3 kb/s
  146. Count of elements                        : 2631
  147. Stream size                              : 30.4 MiB (0%)
  148. Title                                    : English-SDH-PGS
  149. Language                                 : English
  150. Default                                  : No
  151. Forced                                   : No

  152. Text #6
  153. ID                                       : 10
  154. Format                                   : PGS
  155. Muxing mode                              : zlib
  156. Codec ID                                 : S_HDMV/PGS
  157. Codec ID/Info                            : Picture based subtitle format used on BDs/HD-DVDs
  158. Duration                                 : 2 h 8 min
  159. Bit rate                                 : 26.8 kb/s
  160. Count of elements                        : 3098
  161. Stream size                              : 24.6 MiB (0%)
  162. Title                                    : Chinese-PGS
  163. Language                                 : Chinese
  164. Default                                  : No
  165. Forced                                   : No

  166. Text #7
  167. ID                                       : 11
  168. Format                                   : PGS
  169. Muxing mode                              : zlib
  170. Codec ID                                 : S_HDMV/PGS
  171. Codec ID/Info                            : Picture based subtitle format used on BDs/HD-DVDs
  172. Duration                                 : 2 h 16 min
  173. Bit rate                                 : 23.9 kb/s
  174. Count of elements                        : 2722
  175. Stream size                              : 23.3 MiB (0%)
  176. Title                                    : Czech-PGS
  177. Language                                 : Czech
  178. Default                                  : No
  179. Forced                                   : No

  180. Text #8
  181. ID                                       : 12
  182. Format                                   : PGS
  183. Muxing mode                              : zlib
  184. Codec ID                                 : S_HDMV/PGS
  185. Codec ID/Info                            : Picture based subtitle format used on BDs/HD-DVDs
  186. Duration                                 : 2 h 16 min
  187. Bit rate                                 : 26.5 kb/s
  188. Count of elements                        : 1980
  189. Stream size                              : 25.8 MiB (0%)
  190. Title                                    : Danish-PGS
  191. Language                                 : Danish
  192. Default                                  : No
  193. Forced                                   : No

  194. Text #9
  195. ID                                       : 13
  196. Format                                   : PGS
  197. Muxing mode                              : zlib
  198. Codec ID                                 : S_HDMV/PGS
  199. Codec ID/Info                            : Picture based subtitle format used on BDs/HD-DVDs
  200. Duration                                 : 2 h 7 min
  201. Bit rate                                 : 34.0 kb/s
  202. Count of elements                        : 2738
  203. Stream size                              : 31.1 MiB (0%)
  204. Title                                    : Dutch-PGS
  205. Language                                 : Dutch
  206. Default                                  : No
  207. Forced                                   : No

  208. Text #10
  209. ID                                       : 14
  210. Format                                   : PGS
  211. Muxing mode                              : zlib
  212. Codec ID                                 : S_HDMV/PGS
  213. Codec ID/Info                            : Picture based subtitle format used on BDs/HD-DVDs
  214. Duration                                 : 2 h 7 min
  215. Bit rate                                 : 31.6 kb/s
  216. Count of elements                        : 2596
  217. Stream size                              : 28.9 MiB (0%)
  218. Title                                    : Estonian-PGS
  219. Language                                 : Estonian
  220. Default                                  : No
  221. Forced                                   : No

  222. Text #11
  223. ID                                       : 15
  224. Format                                   : PGS
  225. Muxing mode                              : zlib
  226. Codec ID                                 : S_HDMV/PGS
  227. Codec ID/Info                            : Picture based subtitle format used on BDs/HD-DVDs
  228. Duration                                 : 2 h 7 min
  229. Bit rate                                 : 28.6 kb/s
  230. Count of elements                        : 2479
  231. Stream size                              : 26.1 MiB (0%)
  232. Title                                    : Finnish-PGS
  233. Language                                 : Finnish
  234. Default                                  : No
  235. Forced                                   : No

  236. Text #12
  237. ID                                       : 16
  238. Format                                   : PGS
  239. Muxing mode                              : zlib
  240. Codec ID                                 : S_HDMV/PGS
  241. Codec ID/Info                            : Picture based subtitle format used on BDs/HD-DVDs
  242. Duration                                 : 2 h 16 min
  243. Bit rate                                 : 25.8 kb/s
  244. Count of elements                        : 2672
  245. Stream size                              : 25.2 MiB (0%)
  246. Title                                    : French-PGS
  247. Language                                 : French
  248. Default                                  : No
  249. Forced                                   : No

  250. Text #13
  251. ID                                       : 17
  252. Format                                   : PGS
  253. Muxing mode                              : zlib
  254. Codec ID                                 : S_HDMV/PGS
  255. Codec ID/Info                            : Picture based subtitle format used on BDs/HD-DVDs
  256. Duration                                 : 2 h 7 min
  257. Bit rate                                 : 33.1 kb/s
  258. Count of elements                        : 2704
  259. Stream size                              : 30.2 MiB (0%)
  260. Title                                    : German-PGS
  261. Language                                 : German
  262. Default                                  : No
  263. Forced                                   : No

  264. Text #14
  265. ID                                       : 18
  266. Format                                   : PGS
  267. Muxing mode                              : zlib
  268. Codec ID                                 : S_HDMV/PGS
  269. Codec ID/Info                            : Picture based subtitle format used on BDs/HD-DVDs
  270. Duration                                 : 2 h 16 min
  271. Bit rate                                 : 32.2 kb/s
  272. Count of elements                        : 2612
  273. Stream size                              : 31.5 MiB (0%)
  274. Title                                    : Greek-PGS
  275. Language                                 : Greek
  276. Default                                  : No
  277. Forced                                   : No

  278. Text #15
  279. ID                                       : 19
  280. Format                                   : PGS
  281. Muxing mode                              : zlib
  282. Codec ID                                 : S_HDMV/PGS
  283. Codec ID/Info                            : Picture based subtitle format used on BDs/HD-DVDs
  284. Duration                                 : 2 h 7 min
  285. Bit rate                                 : 28.5 kb/s
  286. Count of elements                        : 2477
  287. Stream size                              : 26.0 MiB (0%)
  288. Title                                    : Hungarian-PGS
  289. Language                                 : Hungarian
  290. Default                                  : No
  291. Forced                                   : No

  292. Text #16
  293. ID                                       : 20
  294. Format                                   : PGS
  295. Muxing mode                              : zlib
  296. Codec ID                                 : S_HDMV/PGS
  297. Codec ID/Info                            : Picture based subtitle format used on BDs/HD-DVDs
  298. Duration                                 : 2 h 16 min
  299. Bit rate                                 : 26.5 kb/s
  300. Count of elements                        : 2489
  301. Stream size                              : 25.8 MiB (0%)
  302. Title                                    : Italian-PGS
  303. Language                                 : Italian
  304. Default                                  : No
  305. Forced                                   : No

  306. Text #17
  307. ID                                       : 21
  308. Format                                   : PGS
  309. Muxing mode                              : zlib
  310. Codec ID                                 : S_HDMV/PGS
  311. Codec ID/Info                            : Picture based subtitle format used on BDs/HD-DVDs
  312. Duration                                 : 2 h 16 min
  313. Bit rate                                 : 22.7 kb/s
  314. Count of elements                        : 2372
  315. Stream size                              : 22.1 MiB (0%)
  316. Title                                    : Japanese-PGS
  317. Language                                 : Japanese
  318. Default                                  : No
  319. Forced                                   : No

  320. Text #18
  321. ID                                       : 22
  322. Format                                   : PGS
  323. Muxing mode                              : zlib
  324. Codec ID                                 : S_HDMV/PGS
  325. Codec ID/Info                            : Picture based subtitle format used on BDs/HD-DVDs
  326. Duration                                 : 2 h 8 min
  327. Bit rate                                 : 15.7 kb/s
  328. Count of elements                        : 2666
  329. Stream size                              : 14.5 MiB (0%)
  330. Title                                    : Korean-PGS
  331. Language                                 : Korean
  332. Default                                  : No
  333. Forced                                   : No

  334. Text #19
  335. ID                                       : 23
  336. Format                                   : PGS
  337. Muxing mode                              : zlib
  338. Codec ID                                 : S_HDMV/PGS
  339. Codec ID/Info                            : Picture based subtitle format used on BDs/HD-DVDs
  340. Duration                                 : 2 h 8 min
  341. Bit rate                                 : 34.2 kb/s
  342. Count of elements                        : 2830
  343. Stream size                              : 31.4 MiB (0%)
  344. Title                                    : Lithuanian-PGS
  345. Language                                 : Lithuanian
  346. Default                                  : No
  347. Forced                                   : No

  348. Text #20
  349. ID                                       : 24
  350. Format                                   : PGS
  351. Muxing mode                              : zlib
  352. Codec ID                                 : S_HDMV/PGS
  353. Codec ID/Info                            : Picture based subtitle format used on BDs/HD-DVDs
  354. Duration                                 : 2 h 16 min
  355. Bit rate                                 : 24.3 kb/s
  356. Count of elements                        : 2368
  357. Stream size                              : 23.8 MiB (0%)
  358. Title                                    : Norwegian-PGS
  359. Language                                 : Norwegian
  360. Default                                  : No
  361. Forced                                   : No

  362. Text #21
  363. ID                                       : 25
  364. Format                                   : PGS
  365. Muxing mode                              : zlib
  366. Codec ID                                 : S_HDMV/PGS
  367. Codec ID/Info                            : Picture based subtitle format used on BDs/HD-DVDs
  368. Duration                                 : 2 h 16 min
  369. Bit rate                                 : 29.6 kb/s
  370. Count of elements                        : 2750
  371. Stream size                              : 28.8 MiB (0%)
  372. Title                                    : Polish-PGS
  373. Language                                 : Polish
  374. Default                                  : No
  375. Forced                                   : No

  376. Text #22
  377. ID                                       : 26
  378. Format                                   : PGS
  379. Muxing mode                              : zlib
  380. Codec ID                                 : S_HDMV/PGS
  381. Codec ID/Info                            : Picture based subtitle format used on BDs/HD-DVDs
  382. Duration                                 : 2 h 17 min
  383. Bit rate                                 : 27.4 kb/s
  384. Count of elements                        : 2613
  385. Stream size                              : 26.9 MiB (0%)
  386. Title                                    : Portuguese-PGS
  387. Language                                 : Portuguese
  388. Default                                  : No
  389. Forced                                   : No

  390. Text #23
  391. ID                                       : 27
  392. Format                                   : PGS
  393. Muxing mode                              : zlib
  394. Codec ID                                 : S_HDMV/PGS
  395. Codec ID/Info                            : Picture based subtitle format used on BDs/HD-DVDs
  396. Duration                                 : 2 h 17 min
  397. Bit rate                                 : 32.9 kb/s
  398. Count of elements                        : 2761
  399. Stream size                              : 32.3 MiB (0%)
  400. Title                                    : Portuguese-PGS
  401. Language                                 : Portuguese
  402. Default                                  : No
  403. Forced                                   : No

  404. Text #24
  405. ID                                       : 28
  406. Format                                   : PGS
  407. Muxing mode                              : zlib
  408. Codec ID                                 : S_HDMV/PGS
  409. Codec ID/Info                            : Picture based subtitle format used on BDs/HD-DVDs
  410. Duration                                 : 2 h 17 min
  411. Bit rate                                 : 31.1 kb/s
  412. Count of elements                        : 2566
  413. Stream size                              : 30.5 MiB (0%)
  414. Title                                    : Romanian-PGS
  415. Language                                 : Romanian
  416. Default                                  : No
  417. Forced                                   : No

  418. Text #25
  419. ID                                       : 29
  420. Format                                   : PGS
  421. Muxing mode                              : zlib
  422. Codec ID                                 : S_HDMV/PGS
  423. Codec ID/Info                            : Picture based subtitle format used on BDs/HD-DVDs
  424. Duration                                 : 2 h 16 min
  425. Bit rate                                 : 28.3 kb/s
  426. Count of elements                        : 2661
  427. Stream size                              : 27.6 MiB (0%)
  428. Title                                    : Spanish-PGS
  429. Language                                 : Spanish
  430. Default                                  : No
  431. Forced                                   : No

  432. Text #26
  433. ID                                       : 30
  434. Format                                   : PGS
  435. Muxing mode                              : zlib
  436. Codec ID                                 : S_HDMV/PGS
  437. Codec ID/Info                            : Picture based subtitle format used on BDs/HD-DVDs
  438. Duration                                 : 2 h 17 min
  439. Bit rate                                 : 28.7 kb/s
  440. Count of elements                        : 2697
  441. Stream size                              : 28.2 MiB (0%)
  442. Title                                    : Spanish-PGS
  443. Language                                 : Spanish
  444. Default                                  : No
  445. Forced                                   : No

  446. Text #27
  447. ID                                       : 31
  448. Format                                   : PGS
  449. Muxing mode                              : zlib
  450. Codec ID                                 : S_HDMV/PGS
  451. Codec ID/Info                            : Picture based subtitle format used on BDs/HD-DVDs
  452. Duration                                 : 2 h 16 min
  453. Bit rate                                 : 28.2 kb/s
  454. Count of elements                        : 2088
  455. Stream size                              : 27.5 MiB (0%)
  456. Title                                    : Swedish-PGS
  457. Language                                 : Swedish
  458. Default                                  : No
  459. Forced                                   : No

  460. Text #28
  461. ID                                       : 32
  462. Format                                   : PGS
  463. Muxing mode                              : zlib
  464. Codec ID                                 : S_HDMV/PGS
  465. Codec ID/Info                            : Picture based subtitle format used on BDs/HD-DVDs
  466. Duration                                 : 2 h 8 min
  467. Bit rate                                 : 24.4 kb/s
  468. Count of elements                        : 2663
  469. Stream size                              : 22.4 MiB (0%)
  470. Title                                    : Thai-PGS
  471. Language                                 : Thai
  472. Default                                  : No
  473. Forced                                   : No

  474. Text #29
  475. ID                                       : 33
  476. Format                                   : PGS
  477. Muxing mode                              : zlib
  478. Codec ID                                 : S_HDMV/PGS
  479. Codec ID/Info                            : Picture based subtitle format used on BDs/HD-DVDs
  480. Duration                                 : 2 h 7 min
  481. Bit rate                                 : 33.8 kb/s
  482. Count of elements                        : 2700
  483. Stream size                              : 30.9 MiB (0%)
  484. Title                                    : Turkish-PGS
  485. Language                                 : Turkish
  486. Default                                  : No
  487. Forced                                   : No

  488. Menu
  489. 00:00:00.000                             : en:Chapter 1
  490. 00:09:30.945                             : en:Chapter 2
  491. 00:17:33.010                             : en:Chapter 3
  492. 00:25:40.914                             : en:Chapter 4
  493. 00:32:22.273                             : en:Chapter 5
  494. 00:43:36.822                             : en:Chapter 6
  495. 00:51:52.526                             : en:Chapter 7
  496. 01:01:11.876                             : en:Chapter 8
  497. 01:10:47.534                             : en:Chapter 9
  498. 01:17:13.920                             : en:Chapter 10
  499. 01:26:21.467                             : en:Chapter 11
  500. 01:37:39.436                             : en:Chapter 12
  501. 01:47:41.413                             : en:Chapter 13
  502. 01:58:02.325                             : en:Chapter 14
  503. 02:03:03.167                             : en:Chapter 15
  504. 02:07:28.057                             : en:Chapter 16

复制代码
复制代码
天使与魔鬼/达芬奇密码前传之天使与恶魔 Angels.and.Demons.2009.2160p.BluRay.x265.10bit.SDR.DTS-HD.MA.TrueHD.7.1.Atmos-SWTYBLZ 40.27GB-2.png 天使与魔鬼/达芬奇密码前传之天使与恶魔 Angels.and.Demons.2009.2160p.BluRay.x265.10bit.SDR.DTS-HD.MA.TrueHD.7.1.Atmos-SWTYBLZ 40.27GB-3.png 天使与魔鬼/达芬奇密码前传之天使与恶魔 Angels.and.Demons.2009.2160p.BluRay.x265.10bit.SDR.DTS-HD.MA.TrueHD.7.1.Atmos-SWTYBLZ 40.27GB-4.png 天使与魔鬼/达芬奇密码前传之天使与恶魔 Angels.and.Demons.2009.2160p.BluRay.x265.10bit.SDR.DTS-HD.MA.TrueHD.7.1.Atmos-SWTYBLZ 40.27GB-5.png 天使与魔鬼/达芬奇密码前传之天使与恶魔 Angels.and.Demons.2009.2160p.BluRay.x265.10bit.SDR.DTS-HD.MA.TrueHD.7.1.Atmos-SWTYBLZ 40.27GB-6.png 天使与魔鬼/达芬奇密码前传之天使与恶魔 Angels.and.Demons.2009.2160p.BluRay.x265.10bit.SDR.DTS-HD.MA.TrueHD.7.1.Atmos-SWTYBLZ 40.27GB-7.png 天使与魔鬼/达芬奇密码前传之天使与恶魔 Angels.and.Demons.2009.2160p.BluRay.x265.10bit.SDR.DTS-HD.MA.TrueHD.7.1.Atmos-SWTYBLZ 40.27GB-8.png





回复

使用道具 举报

懒得打字嘛,点击右侧快捷回复 【右侧内容,后台自定义】
您需要登录后才可以回帖 登录 | 立即加入

本版积分规则

Archiver| |网站地图

Copyright © 2024 Comsenz Inc. Powered by 蓝光电影网

本站内容由用户自主分享和转载自互联网,转载目的在于传递更多信息,并不代表本网赞同其观点和对其真实性负责。

如有侵权、违反国家法律政策行为,请联系我们,我们会第一时间及时清除和处理!

举报反馈邮箱:4k1080.com@gmail.com

快速回复 返回顶部 返回列表