找回密码

查看: 2746|回复: 1

天使与魔鬼/达芬奇密码前传之天使与恶魔 Angels.and.Demons.2009.2160p.BluRay.x264.8bit.SDR.DTS-HD.MA.TrueHD.7.1.Atmos-SWTYBLZ 45.91GB

[复制链接]
蓝光币
1992
发表于 2017-12-21 20:32:27 | 显示全部楼层 |阅读模式
天使与魔鬼/达芬奇密码前传之天使与恶魔 Angels.and.Demons.2009.2160p.BluRay.x264.8bit.SDR.DTS-HD.MA.TrueHD.7.1.Atmos-SWTYBLZ 45.91GB-1.jpg
◎译  名 天使与魔鬼/达芬奇密码前传之天使与恶魔
◎片  名 Angels & Demons
◎年  代 2009
◎产  地 美国/意大利
◎类  别 悬疑/惊悚
◎语  言 英语/意大利语/拉丁语/法语/瑞士德语/德语/西班牙语
◎上映日期 2009-05-15(美国)
◎IMDb评分  6.7/10 from 235,506 users
◎IMDb链接  http://www.imdb.com/title/tt0808151/
◎豆瓣评分 7.2/10 from 75,514 users
◎豆瓣链接 https://movie.douban.com/subject/1927369/
◎片  长 138分钟/146分钟(加长版)
◎导  演 朗·霍华德 Ron Howard
◎主  演 汤姆·汉克斯 Tom Hanks
      伊万·麦克格雷格 Ewan McGregor
      阿耶莱特·祖里尔 Ayelet Zurer
      斯特兰·斯卡斯加德 Stellan Skarsg?rd
      皮尔弗朗西斯科·法维诺 Pierfrancesco Favino
      尼古拉·雷·卡斯 Nikolaj Lie Kaas
      阿明·缪勒-斯塔尔 Armin Mueller-Stahl
      托尔·林德哈特 Thure Lindhardt
      大卫·帕斯奎斯 David Pasquesi
      科西莫·福斯科 Cosimo Fusco
      维克多·阿尔菲 Victor Alfieri
      科特·罗文斯 Curt Lowens
      鲍勃·耶基斯 Bob Yerkes

◎简  介

  本片按照美国畅销作家丹?布朗的同名小说改编。欧洲核子中心的科学家维多利亚?维特勒(阿耶莱特?祖瑞尔 Ayelet Zurer 饰)与父亲在高速粒子对撞机尝试中收集到了反物资,却发现父亲遇害,尸身胸口被烙“光照派”标记,高爆炸性的反物资被偷走,出现在正待选新教皇的罗马梵蒂冈,威胁天主教廷及全部罗马的安危。于此同时,四位首要教皇候选人的红衣主教奥秘失落。在教皇内侍(伊万?麦克格雷格 Ewan McGregor 饰)的授意下,哈佛大学的标记学专家罗伯特?兰登教授和维多利亚都被请到梵蒂冈辅佐罗马差人展开搜寻行动。兰登压服罗马总捕快奥利维迪(皮耶法兰西斯柯?法维诺Pierfrancesco Favino 饰)依照“土、气、火、水”的提醒在罗马的胜景教堂间与“光照派”展开了时候战……

◎获奖情况

  第11届美国青少年挑选奖  (2009)
  最好剧情片(提名)
  最好暑期剧情片(提名)



  1. Video
  2. ID                                       : 1
  3. Format                                   : AVC
  4. Format/Info                              : Advanced Video Codec
  5. Format profile                           : [url=mailto:High@L5.1]High@L5.1[/url]
  6. Format settings                          : CABAC / 5 Ref Frames
  7. Format settings, CABAC                   : Yes
  8. Format settings, RefFrames               : 5 frames
  9. Codec ID                                 : V_MPEG4/ISO/AVC
  10. Duration                                 : 2 h 18 min
  11. Bit rate                                 : 37.3 Mb/s
  12. Width                                    : 3 840 pixels
  13. Height                                   : 1 600 pixels
  14. Display aspect ratio                     : 2.40:1
  15. Frame rate mode                          : Constant
  16. Frame rate                               : 23.976 (24000/1001) FPS
  17. Color space                              : YUV
  18. Chroma subsampling                       : 4:2:0
  19. Bit depth                                : 8 bits
  20. Scan type                                : Progressive
  21. Bits/(Pixel*Frame)                       : 0.253
  22. Stream size                              : 36.1GB (79%)
  23. Title                                    : Angels.and.Demons.2009.2160p.BluRay.x264.8bit.SDR.DTS-HD.MA.TrueHD.7.1.Atmos-SWTYBLZ
  24. Writing library                          : x264 core 148 r2748 97eaef2
  25. Encoding settings                        : cabac=1 / ref=5 / deblock=1:-1:-1 / analyse=0x3:0x113 / me=umh / subme=10 / psy=1 / psy_rd=1.00:0.15 / mixed_ref=1 / me_range=48 / chroma_me=1 / trellis=2 / 8x8dct=1 / cqm=0 / deadzone=21,11 / fast_pskip=1 / chroma_qp_offset=-3 / threads=36 / lookahead_threads=3 / sliced_threads=0 / nr=0 / decimate=0 / interlaced=0 / bluray_compat=0 / constrained_intra=0 / bframes=3 / b_pyramid=2 / b_adapt=2 / b_bias=0 / direct=3 / weightb=1 / open_gop=0 / weightp=2 / keyint=250 / keyint_min=23 / scenecut=40 / intra_refresh=0 / rc_lookahead=50 / rc=crf / mbtree=1 / crf=18.0 / qcomp=0.60 / qpmin=0 / qpmax=69 / qpstep=4 / ip_ratio=1.40 / aq=1:1.00
  26. Default                                  : Yes
  27. Forced                                   : No

  28. Audio #1
  29. ID                                       : 2
  30. Format                                   : TrueHD
  31. Format profile                           : TrueHD+Atmos / TrueHD
  32. Codec ID                                 : A_TRUEHD
  33. Duration                                 : 2 h 18 min
  34. Bit rate mode                            : Variable
  35. Bit rate                                 : 4 913 kb/s
  36. Maximum bit rate                         : 8 085 kb/s
  37. Channel(s)                               : Object Based / 8 channels
  38. Channel positions                        : Object Based / Front: L C R, Side: L R, Back: L R, LFE
  39. Sampling rate                            :  / 48.0 kHz
  40. Frame rate                               : 1 200.000 FPS (40 SPF)
  41. Compression mode                         : Lossless
  42. Stream size                              : 4.76GB (10%)
  43. Title                                    : Angels.and.Demons.2009.2160p.BluRay.x264.8bit.SDR.DTS-HD.MA.TrueHD.7.1.Atmos-SWTYBLZ
  44. Language                                 : English
  45. Default                                  : Yes
  46. Forced                                   : No

  47. Audio #2
  48. ID                                       : 3
  49. Format                                   : DTS
  50. Format/Info                              : Digital Theater Systems
  51. Format profile                           : MA / Core
  52. Codec ID                                 : A_DTS
  53. Duration                                 : 2 h 18 min
  54. Bit rate mode                            : Variable / Constant
  55. Bit rate                                 : 4 024 kb/s / 1 509 kb/s
  56. Channel(s)                               : 8 channels / 6 channels
  57. Channel positions                        : Front: L C R, Side: L R, Back: L R, LFE / Front: L C R, Side: L R, LFE
  58. Sampling rate                            : 48.0 kHz
  59. Frame rate                               : 93.750 FPS (512 SPF)
  60. Bit depth                                : 24 bits
  61. Compression mode                         : Lossless / Lossy
  62. Stream size                              : 3.90GB (9%)
  63. Title                                    : Angels.and.Demons.2009.2160p.BluRay.x264.8bit.SDR.DTS-HD.MA.TrueHD.7.1.Atmos-SWTYBLZ
  64. Language                                 : English
  65. Default                                  : No
  66. Forced                                   : No

  67. Audio #3
  68. ID                                       : 4
  69. Format                                   : AC-3
  70. Format/Info                              : Audio Coding 3
  71. Codec ID                                 : A_AC3
  72. Duration                                 : 2 h 18 min
  73. Bit rate mode                            : Constant
  74. Bit rate                                 : 640 kb/s
  75. Channel(s)                               : 6 channels
  76. Channel positions                        : Front: L C R, Side: L R, LFE
  77. Sampling rate                            : 48.0 kHz
  78. Frame rate                               : 31.250 FPS (1536 SPF)
  79. Bit depth                                : 16 bits
  80. Compression mode                         : Lossy
  81. Stream size                              : 635 MiB (1%)
  82. Title                                    : Angels.and.Demons.2009.2160p.BluRay.x264.8bit.SDR.DTS-HD.MA.TrueHD.7.1.Atmos-SWTYBLZ
  83. Language                                 : English
  84. Service kind                             : Complete Main
  85. Default                                  : No
  86. Forced                                   : No

  87. Text #1
  88. ID                                       : 5
  89. Format                                   : UTF-8
  90. Codec ID                                 : S_TEXT/UTF8
  91. Codec ID/Info                            : UTF-8 Plain Text
  92. Duration                                 : 2 h 7 min
  93. Bit rate                                 : 53 b/s
  94. Count of elements                        : 1326
  95. Stream size                              : 50.0 KiB (0%)
  96. Title                                    : English-SRT
  97. Language                                 : English
  98. Default                                  : Yes
  99. Forced                                   : No

  100. Text #2
  101. ID                                       : 6
  102. Format                                   : PGS
  103. Muxing mode                              : zlib
  104. Codec ID                                 : S_HDMV/PGS
  105. Codec ID/Info                            : Picture based subtitle format used on BDs/HD-DVDs
  106. Duration                                 : 2 h 11 min
  107. Bit rate                                 : 36.8 kb/s
  108. Count of elements                        : 3146
  109. Stream size                              : 34.7 MiB (0%)
  110. Title                                    : English-PGS
  111. Language                                 : English
  112. Default                                  : No
  113. Forced                                   : No

  114. Text #3
  115. ID                                       : 7
  116. Format                                   : PGS
  117. Muxing mode                              : zlib
  118. Codec ID                                 : S_HDMV/PGS
  119. Codec ID/Info                            : Picture based subtitle format used on BDs/HD-DVDs
  120. Duration                                 : 2 h 7 min
  121. Bit rate                                 : 33.5 kb/s
  122. Count of elements                        : 2636
  123. Stream size                              : 30.6 MiB (0%)
  124. Title                                    : English-SDH-PGS
  125. Language                                 : English
  126. Default                                  : No
  127. Forced                                   : No

  128. Text #4
  129. ID                                       : 8
  130. Format                                   : PGS
  131. Muxing mode                              : zlib
  132. Codec ID                                 : S_HDMV/PGS
  133. Codec ID/Info                            : Picture based subtitle format used on BDs/HD-DVDs
  134. Duration                                 : 2 h 11 min
  135. Bit rate                                 : 36.8 kb/s
  136. Count of elements                        : 3144
  137. Stream size                              : 34.6 MiB (0%)
  138. Title                                    : English-PGS
  139. Language                                 : English
  140. Default                                  : No
  141. Forced                                   : No

  142. Text #5
  143. ID                                       : 9
  144. Format                                   : PGS
  145. Muxing mode                              : zlib
  146. Codec ID                                 : S_HDMV/PGS
  147. Codec ID/Info                            : Picture based subtitle format used on BDs/HD-DVDs
  148. Duration                                 : 2 h 7 min
  149. Bit rate                                 : 33.3 kb/s
  150. Count of elements                        : 2631
  151. Stream size                              : 30.4 MiB (0%)
  152. Title                                    : English-SDH-PGS
  153. Language                                 : English
  154. Default                                  : No
  155. Forced                                   : No

  156. Text #6
  157. ID                                       : 10
  158. Format                                   : PGS
  159. Muxing mode                              : zlib
  160. Codec ID                                 : S_HDMV/PGS
  161. Codec ID/Info                            : Picture based subtitle format used on BDs/HD-DVDs
  162. Duration                                 : 2 h 8 min
  163. Bit rate                                 : 26.8 kb/s
  164. Count of elements                        : 3098
  165. Stream size                              : 24.6 MiB (0%)
  166. Title                                    : Chinese-PGS
  167. Language                                 : Chinese
  168. Default                                  : No
  169. Forced                                   : No

  170. Text #7
  171. ID                                       : 11
  172. Format                                   : PGS
  173. Muxing mode                              : zlib
  174. Codec ID                                 : S_HDMV/PGS
  175. Codec ID/Info                            : Picture based subtitle format used on BDs/HD-DVDs
  176. Duration                                 : 2 h 16 min
  177. Bit rate                                 : 23.9 kb/s
  178. Count of elements                        : 2722
  179. Stream size                              : 23.3 MiB (0%)
  180. Title                                    : Czech-PGS
  181. Language                                 : Czech
  182. Default                                  : No
  183. Forced                                   : No

  184. Text #8
  185. ID                                       : 12
  186. Format                                   : PGS
  187. Muxing mode                              : zlib
  188. Codec ID                                 : S_HDMV/PGS
  189. Codec ID/Info                            : Picture based subtitle format used on BDs/HD-DVDs
  190. Duration                                 : 2 h 16 min
  191. Bit rate                                 : 26.5 kb/s
  192. Count of elements                        : 1980
  193. Stream size                              : 25.8 MiB (0%)
  194. Title                                    : Danish-PGS
  195. Language                                 : Danish
  196. Default                                  : No
  197. Forced                                   : No

  198. Text #9
  199. ID                                       : 13
  200. Format                                   : PGS
  201. Muxing mode                              : zlib
  202. Codec ID                                 : S_HDMV/PGS
  203. Codec ID/Info                            : Picture based subtitle format used on BDs/HD-DVDs
  204. Duration                                 : 2 h 7 min
  205. Bit rate                                 : 34.0 kb/s
  206. Count of elements                        : 2738
  207. Stream size                              : 31.1 MiB (0%)
  208. Title                                    : Dutch-PGS
  209. Language                                 : Dutch
  210. Default                                  : No
  211. Forced                                   : No

  212. Text #10
  213. ID                                       : 14
  214. Format                                   : PGS
  215. Muxing mode                              : zlib
  216. Codec ID                                 : S_HDMV/PGS
  217. Codec ID/Info                            : Picture based subtitle format used on BDs/HD-DVDs
  218. Duration                                 : 2 h 7 min
  219. Bit rate                                 : 31.6 kb/s
  220. Count of elements                        : 2596
  221. Stream size                              : 28.9 MiB (0%)
  222. Title                                    : Estonian-PGS
  223. Language                                 : Estonian
  224. Default                                  : No
  225. Forced                                   : No

  226. Text #11
  227. ID                                       : 15
  228. Format                                   : PGS
  229. Muxing mode                              : zlib
  230. Codec ID                                 : S_HDMV/PGS
  231. Codec ID/Info                            : Picture based subtitle format used on BDs/HD-DVDs
  232. Duration                                 : 2 h 7 min
  233. Bit rate                                 : 28.6 kb/s
  234. Count of elements                        : 2479
  235. Stream size                              : 26.1 MiB (0%)
  236. Title                                    : Finnish-PGS
  237. Language                                 : Finnish
  238. Default                                  : No
  239. Forced                                   : No

  240. Text #12
  241. ID                                       : 16
  242. Format                                   : PGS
  243. Muxing mode                              : zlib
  244. Codec ID                                 : S_HDMV/PGS
  245. Codec ID/Info                            : Picture based subtitle format used on BDs/HD-DVDs
  246. Duration                                 : 2 h 16 min
  247. Bit rate                                 : 25.8 kb/s
  248. Count of elements                        : 2672
  249. Stream size                              : 25.2 MiB (0%)
  250. Title                                    : French-PGS
  251. Language                                 : French
  252. Default                                  : No
  253. Forced                                   : No

  254. Text #13
  255. ID                                       : 17
  256. Format                                   : PGS
  257. Muxing mode                              : zlib
  258. Codec ID                                 : S_HDMV/PGS
  259. Codec ID/Info                            : Picture based subtitle format used on BDs/HD-DVDs
  260. Duration                                 : 2 h 7 min
  261. Bit rate                                 : 33.1 kb/s
  262. Count of elements                        : 2704
  263. Stream size                              : 30.2 MiB (0%)
  264. Title                                    : German-PGS
  265. Language                                 : German
  266. Default                                  : No
  267. Forced                                   : No

  268. Text #14
  269. ID                                       : 18
  270. Format                                   : PGS
  271. Muxing mode                              : zlib
  272. Codec ID                                 : S_HDMV/PGS
  273. Codec ID/Info                            : Picture based subtitle format used on BDs/HD-DVDs
  274. Duration                                 : 2 h 16 min
  275. Bit rate                                 : 32.2 kb/s
  276. Count of elements                        : 2612
  277. Stream size                              : 31.5 MiB (0%)
  278. Title                                    : Greek-PGS
  279. Language                                 : Greek
  280. Default                                  : No
  281. Forced                                   : No

  282. Text #15
  283. ID                                       : 19
  284. Format                                   : PGS
  285. Muxing mode                              : zlib
  286. Codec ID                                 : S_HDMV/PGS
  287. Codec ID/Info                            : Picture based subtitle format used on BDs/HD-DVDs
  288. Duration                                 : 2 h 7 min
  289. Bit rate                                 : 28.5 kb/s
  290. Count of elements                        : 2477
  291. Stream size                              : 26.0 MiB (0%)
  292. Title                                    : Hungarian-PGS
  293. Language                                 : Hungarian
  294. Default                                  : No
  295. Forced                                   : No

  296. Text #16
  297. ID                                       : 20
  298. Format                                   : PGS
  299. Muxing mode                              : zlib
  300. Codec ID                                 : S_HDMV/PGS
  301. Codec ID/Info                            : Picture based subtitle format used on BDs/HD-DVDs
  302. Duration                                 : 2 h 16 min
  303. Bit rate                                 : 26.5 kb/s
  304. Count of elements                        : 2489
  305. Stream size                              : 25.8 MiB (0%)
  306. Title                                    : Italian-PGS
  307. Language                                 : Italian
  308. Default                                  : No
  309. Forced                                   : No

  310. Text #17
  311. ID                                       : 21
  312. Format                                   : PGS
  313. Muxing mode                              : zlib
  314. Codec ID                                 : S_HDMV/PGS
  315. Codec ID/Info                            : Picture based subtitle format used on BDs/HD-DVDs
  316. Duration                                 : 2 h 16 min
  317. Bit rate                                 : 22.7 kb/s
  318. Count of elements                        : 2372
  319. Stream size                              : 22.1 MiB (0%)
  320. Title                                    : Japanese-PGS
  321. Language                                 : Japanese
  322. Default                                  : No
  323. Forced                                   : No

  324. Text #18
  325. ID                                       : 22
  326. Format                                   : PGS
  327. Muxing mode                              : zlib
  328. Codec ID                                 : S_HDMV/PGS
  329. Codec ID/Info                            : Picture based subtitle format used on BDs/HD-DVDs
  330. Duration                                 : 2 h 8 min
  331. Bit rate                                 : 15.7 kb/s
  332. Count of elements                        : 2666
  333. Stream size                              : 14.5 MiB (0%)
  334. Title                                    : Korean-PGS
  335. Language                                 : Korean
  336. Default                                  : No
  337. Forced                                   : No

  338. Text #19
  339. ID                                       : 23
  340. Format                                   : PGS
  341. Muxing mode                              : zlib
  342. Codec ID                                 : S_HDMV/PGS
  343. Codec ID/Info                            : Picture based subtitle format used on BDs/HD-DVDs
  344. Duration                                 : 2 h 8 min
  345. Bit rate                                 : 34.2 kb/s
  346. Count of elements                        : 2830
  347. Stream size                              : 31.4 MiB (0%)
  348. Title                                    : Lithuanian-PGS
  349. Language                                 : Lithuanian
  350. Default                                  : No
  351. Forced                                   : No

  352. Text #20
  353. ID                                       : 24
  354. Format                                   : PGS
  355. Muxing mode                              : zlib
  356. Codec ID                                 : S_HDMV/PGS
  357. Codec ID/Info                            : Picture based subtitle format used on BDs/HD-DVDs
  358. Duration                                 : 2 h 16 min
  359. Bit rate                                 : 24.3 kb/s
  360. Count of elements                        : 2368
  361. Stream size                              : 23.8 MiB (0%)
  362. Title                                    : Norwegian-PGS
  363. Language                                 : Norwegian
  364. Default                                  : No
  365. Forced                                   : No

  366. Text #21
  367. ID                                       : 25
  368. Format                                   : PGS
  369. Muxing mode                              : zlib
  370. Codec ID                                 : S_HDMV/PGS
  371. Codec ID/Info                            : Picture based subtitle format used on BDs/HD-DVDs
  372. Duration                                 : 2 h 16 min
  373. Bit rate                                 : 29.6 kb/s
  374. Count of elements                        : 2750
  375. Stream size                              : 28.8 MiB (0%)
  376. Title                                    : Polish-PGS
  377. Language                                 : Polish
  378. Default                                  : No
  379. Forced                                   : No

  380. Text #22
  381. ID                                       : 26
  382. Format                                   : PGS
  383. Muxing mode                              : zlib
  384. Codec ID                                 : S_HDMV/PGS
  385. Codec ID/Info                            : Picture based subtitle format used on BDs/HD-DVDs
  386. Duration                                 : 2 h 17 min
  387. Bit rate                                 : 27.4 kb/s
  388. Count of elements                        : 2613
  389. Stream size                              : 26.9 MiB (0%)
  390. Title                                    : Portuguese-PGS
  391. Language                                 : Portuguese
  392. Default                                  : No
  393. Forced                                   : No

  394. Text #23
  395. ID                                       : 27
  396. Format                                   : PGS
  397. Muxing mode                              : zlib
  398. Codec ID                                 : S_HDMV/PGS
  399. Codec ID/Info                            : Picture based subtitle format used on BDs/HD-DVDs
  400. Duration                                 : 2 h 17 min
  401. Bit rate                                 : 32.9 kb/s
  402. Count of elements                        : 2761
  403. Stream size                              : 32.3 MiB (0%)
  404. Title                                    : Portuguese-PGS
  405. Language                                 : Portuguese
  406. Default                                  : No
  407. Forced                                   : No

  408. Text #24
  409. ID                                       : 28
  410. Format                                   : PGS
  411. Muxing mode                              : zlib
  412. Codec ID                                 : S_HDMV/PGS
  413. Codec ID/Info                            : Picture based subtitle format used on BDs/HD-DVDs
  414. Duration                                 : 2 h 17 min
  415. Bit rate                                 : 31.1 kb/s
  416. Count of elements                        : 2566
  417. Stream size                              : 30.5 MiB (0%)
  418. Title                                    : Romanian-PGS
  419. Language                                 : Romanian
  420. Default                                  : No
  421. Forced                                   : No

  422. Text #25
  423. ID                                       : 29
  424. Format                                   : PGS
  425. Muxing mode                              : zlib
  426. Codec ID                                 : S_HDMV/PGS
  427. Codec ID/Info                            : Picture based subtitle format used on BDs/HD-DVDs
  428. Duration                                 : 2 h 16 min
  429. Bit rate                                 : 28.3 kb/s
  430. Count of elements                        : 2661
  431. Stream size                              : 27.6 MiB (0%)
  432. Title                                    : Spanish-PGS
  433. Language                                 : Spanish
  434. Default                                  : No
  435. Forced                                   : No

  436. Text #26
  437. ID                                       : 30
  438. Format                                   : PGS
  439. Muxing mode                              : zlib
  440. Codec ID                                 : S_HDMV/PGS
  441. Codec ID/Info                            : Picture based subtitle format used on BDs/HD-DVDs
  442. Duration                                 : 2 h 17 min
  443. Bit rate                                 : 28.7 kb/s
  444. Count of elements                        : 2697
  445. Stream size                              : 28.2 MiB (0%)
  446. Title                                    : Spanish-PGS
  447. Language                                 : Spanish
  448. Default                                  : No
  449. Forced                                   : No

  450. Text #27
  451. ID                                       : 31
  452. Format                                   : PGS
  453. Muxing mode                              : zlib
  454. Codec ID                                 : S_HDMV/PGS
  455. Codec ID/Info                            : Picture based subtitle format used on BDs/HD-DVDs
  456. Duration                                 : 2 h 16 min
  457. Bit rate                                 : 28.2 kb/s
  458. Count of elements                        : 2088
  459. Stream size                              : 27.5 MiB (0%)
  460. Title                                    : Swedish-PGS
  461. Language                                 : Swedish
  462. Default                                  : No
  463. Forced                                   : No

  464. Text #28
  465. ID                                       : 32
  466. Format                                   : PGS
  467. Muxing mode                              : zlib
  468. Codec ID                                 : S_HDMV/PGS
  469. Codec ID/Info                            : Picture based subtitle format used on BDs/HD-DVDs
  470. Duration                                 : 2 h 8 min
  471. Bit rate                                 : 24.4 kb/s
  472. Count of elements                        : 2663
  473. Stream size                              : 22.4 MiB (0%)
  474. Title                                    : Thai-PGS
  475. Language                                 : Thai
  476. Default                                  : No
  477. Forced                                   : No

  478. Text #29
  479. ID                                       : 33
  480. Format                                   : PGS
  481. Muxing mode                              : zlib
  482. Codec ID                                 : S_HDMV/PGS
  483. Codec ID/Info                            : Picture based subtitle format used on BDs/HD-DVDs
  484. Duration                                 : 2 h 7 min
  485. Bit rate                                 : 33.8 kb/s
  486. Count of elements                        : 2700
  487. Stream size                              : 30.9 MiB (0%)
  488. Title                                    : Turkish-PGS
  489. Language                                 : Turkish
  490. Default                                  : No
  491. Forced                                   : No

  492. Menu
  493. 00:00:00.000                             : en:Chapter 1
  494. 00:09:30.945                             : en:Chapter 2
  495. 00:17:33.010                             : en:Chapter 3
  496. 00:25:40.914                             : en:Chapter 4
  497. 00:32:22.273                             : en:Chapter 5
  498. 00:43:36.822                             : en:Chapter 6
  499. 00:51:52.526                             : en:Chapter 7
  500. 01:01:11.876                             : en:Chapter 8
  501. 01:10:47.534                             : en:Chapter 9
  502. 01:17:13.920                             : en:Chapter 10
  503. 01:26:21.467                             : en:Chapter 11
  504. 01:37:39.436                             : en:Chapter 12
  505. 01:47:41.413                             : en:Chapter 13
  506. 01:58:02.325                             : en:Chapter 14
  507. 02:03:03.167                             : en:Chapter 15
  508. 02:07:28.057                             : en:Chapter 16

复制代码
复制代码
天使与魔鬼/达芬奇密码前传之天使与恶魔 Angels.and.Demons.2009.2160p.BluRay.x264.8bit.SDR.DTS-HD.MA.TrueHD.7.1.Atmos-SWTYBLZ 45.91GB-2.png 天使与魔鬼/达芬奇密码前传之天使与恶魔 Angels.and.Demons.2009.2160p.BluRay.x264.8bit.SDR.DTS-HD.MA.TrueHD.7.1.Atmos-SWTYBLZ 45.91GB-3.png 天使与魔鬼/达芬奇密码前传之天使与恶魔 Angels.and.Demons.2009.2160p.BluRay.x264.8bit.SDR.DTS-HD.MA.TrueHD.7.1.Atmos-SWTYBLZ 45.91GB-4.png 天使与魔鬼/达芬奇密码前传之天使与恶魔 Angels.and.Demons.2009.2160p.BluRay.x264.8bit.SDR.DTS-HD.MA.TrueHD.7.1.Atmos-SWTYBLZ 45.91GB-5.png 天使与魔鬼/达芬奇密码前传之天使与恶魔 Angels.and.Demons.2009.2160p.BluRay.x264.8bit.SDR.DTS-HD.MA.TrueHD.7.1.Atmos-SWTYBLZ 45.91GB-6.png 天使与魔鬼/达芬奇密码前传之天使与恶魔 Angels.and.Demons.2009.2160p.BluRay.x264.8bit.SDR.DTS-HD.MA.TrueHD.7.1.Atmos-SWTYBLZ 45.91GB-7.png 天使与魔鬼/达芬奇密码前传之天使与恶魔 Angels.and.Demons.2009.2160p.BluRay.x264.8bit.SDR.DTS-HD.MA.TrueHD.7.1.Atmos-SWTYBLZ 45.91GB-8.png





回复

使用道具 举报

懒得打字嘛,点击右侧快捷回复 【右侧内容,后台自定义】
您需要登录后才可以回帖 登录 | 立即加入

本版积分规则

Archiver| |网站地图

Copyright © 2024 Comsenz Inc. Powered by 蓝光电影网

本站内容由用户自主分享和转载自互联网,转载目的在于传递更多信息,并不代表本网赞同其观点和对其真实性负责。

如有侵权、违反国家法律政策行为,请联系我们,我们会第一时间及时清除和处理!

举报反馈邮箱:4k1080.com@gmail.com

快速回复 返回顶部 返回列表