找回密码

查看: 2334|回复: 0

奋斗的乔伊/翻转幸福 Joy.2015.2160p.BluRay.x264.8bit.SDR.DTS-HD.MA.5.1-SWTYBLZ 37.07GB

[复制链接]
蓝光币
1971
发表于 2017-12-21 20:34:45 | 显示全部楼层 |阅读模式
奋斗的乔伊/翻转幸运 Joy.2015.2160p.BluRay.x264.8bit.SDR.DTS-HD.MA.5.1-SWTYBLZ 37.07GB-1.jpg
◎译  名 奋斗的乔伊/翻转幸运/欢姐当自强/乔伊的发现/乔伊/拖把女王/发现妇女/乔伊的奋斗
◎片  名 Joy
◎年  代 2015
◎产  地 美国
◎类  别 剧情/笑剧/列传
◎语  言 英语/西班牙语
◎上映日期 2015-12-25(美国)
◎IMDb评分  6.6/10 from 104,727 users
◎IMDb链接  http://www.imdb.com/title/tt2446980/
◎豆瓣评分 6.6/10 from 14,926 users
◎豆瓣链接 https://movie.douban.com/subject/25901741/
◎片  长 124分钟
◎导  演 大卫·欧·拉塞尔 David O. Russell
◎主  演 詹妮弗·劳伦斯 Jennifer Lawrence
      罗伯特·德尼罗 Robert De Niro
      埃德加·拉米雷兹 édgar Ramírez
      布莱德利·库珀 Bradley Cooper
      戴安·拉德 Diane Ladd
      维吉妮娅·马德森 Virginia Madsen
      伊莎贝拉·罗西里尼 Isabella Rossellini
      达丝莎·坡兰科 Dascha Polanco
      伊丽莎白·霍尔姆 Elisabeth R?hm
      苏珊·卢琪 Susan Lucci
      劳拉·怀特 Laura Wright
      莫里斯·贝纳德 Maurice Benard
      唐娜·米尔斯 Donna Mills
      吉米·让-刘易斯 Jimmy Jean-Louis
      约翰·伊诺斯III John Enos III
      埃里卡·麦克德莫特 Erica McDermott

◎简  介

  电影《拖把女王》报告上世纪八十年月一位居住在长岛的单身母亲Joy经过本身尽力,销售奇异拖把发家致富,终极成为一代拖把女王的故事。
  电影《拖把女王》将是詹妮弗·劳伦斯和布拉德利·库珀在银幕上的四度合作,老戏骨罗伯特·德尼罗也将加盟,电影已于克日在波士顿开拍,由大卫·O·拉塞尔执导,已定于圣诞节当日在北美公映。

◎获奖情况

  第88届奥斯卡金像奖  (2016)
  最好女配角(提名) 詹妮弗·劳伦斯

  第73届金球奖  (2016)
  电影类 最好音乐/笑剧片(提名)
  电影类 音乐/笑剧片最好女配角 詹妮弗·劳伦斯

  第66届美国剪辑工会奖  (2016)
  音乐/笑剧片最好剪辑(提名)

  第18届美国打扮设想工会奖  (2016)
  现代题材电影最好打扮设想(提名)

  第21届美国批评家挑选电影奖  (2016)
  最好女配角(提名) 詹妮弗·劳伦斯
  最好笑剧片(提名)
  笑剧片最好女配角(提名) 詹妮弗·劳伦斯



  1. Video
  2. ID                                       : 1
  3. Format                                   : AVC
  4. Format/Info                              : Advanced Video Codec
  5. Format profile                           : [url=mailto:High@L5.1]High@L5.1[/url]
  6. Format settings                          : CABAC / 5 Ref Frames
  7. Format settings, CABAC                   : Yes
  8. Format settings, RefFrames               : 5 frames
  9. Codec ID                                 : V_MPEG4/ISO/AVC
  10. Duration                                 : 2 h 4 min
  11. Bit rate                                 : 38.4 Mb/s
  12. Width                                    : 3 840 pixels
  13. Height                                   : 2 076 pixels
  14. Display aspect ratio                     : 1.85:1
  15. Frame rate mode                          : Constant
  16. Frame rate                               : 23.976 (24000/1001) FPS
  17. Color space                              : YUV
  18. Chroma subsampling                       : 4:2:0
  19. Bit depth                                : 8 bits
  20. Scan type                                : Progressive
  21. Bits/(Pixel*Frame)                       : 0.201
  22. Stream size                              : 33.2GB (91%)
  23. Title                                    : Joy.2015.2160p.BluRay.x264.8bit.SDR.DTS-HD.MA.5.1-SWTYBLZ
  24. Writing library                          : x264 core 148 r2748 97eaef2
  25. Encoding settings                        : cabac=1 / ref=5 / deblock=1:-1:-1 / analyse=0x3:0x113 / me=umh / subme=10 / psy=1 / psy_rd=1.00:0.15 / mixed_ref=1 / me_range=48 / chroma_me=1 / trellis=2 / 8x8dct=1 / cqm=0 / deadzone=21,11 / fast_pskip=1 / chroma_qp_offset=-3 / threads=65 / lookahead_threads=5 / sliced_threads=0 / nr=0 / decimate=0 / interlaced=0 / bluray_compat=0 / constrained_intra=0 / bframes=3 / b_pyramid=2 / b_adapt=2 / b_bias=0 / direct=3 / weightb=1 / open_gop=0 / weightp=2 / keyint=250 / keyint_min=23 / scenecut=40 / intra_refresh=0 / rc_lookahead=50 / rc=crf / mbtree=1 / crf=20.0 / qcomp=0.60 / qpmin=0 / qpmax=69 / qpstep=4 / ip_ratio=1.40 / aq=1:1.00
  26. Language                                 : English
  27. Default                                  : Yes
  28. Forced                                   : No

  29. Audio #1
  30. ID                                       : 2
  31. Format                                   : DTS
  32. Format/Info                              : Digital Theater Systems
  33. Format profile                           : MA / Core
  34. Codec ID                                 : A_DTS
  35. Duration                                 : 2 h 4 min
  36. Bit rate mode                            : Variable / Constant
  37. Bit rate                                 : 3 250 kb/s / 1 509 kb/s
  38. Channel(s)                               : 6 channels
  39. Channel positions                        : Front: L C R, Side: L R, LFE
  40. Sampling rate                            : 48.0 kHz
  41. Frame rate                               : 93.750 FPS (512 SPF)
  42. Bit depth                                : 24 bits
  43. Compression mode                         : Lossless / Lossy
  44. Delay relative to video                  : 7 ms
  45. Stream size                              : 2.82GB (8%)
  46. Title                                    : Joy.2015.2160p.BluRay.x264.8bit.SDR.DTS-HD.MA.5.1-SWTYBLZ
  47. Language                                 : English
  48. Default                                  : Yes
  49. Forced                                   : No

  50. Audio #2
  51. ID                                       : 3
  52. Format                                   : AC-3
  53. Format/Info                              : Audio Coding 3
  54. Codec ID                                 : A_AC3
  55. Duration                                 : 2 h 4 min
  56. Bit rate mode                            : Constant
  57. Bit rate                                 : 640 kb/s
  58. Channel(s)                               : 6 channels
  59. Channel positions                        : Front: L C R, Side: L R, LFE
  60. Sampling rate                            : 48.0 kHz
  61. Frame rate                               : 31.250 FPS (1536 SPF)
  62. Bit depth                                : 16 bits
  63. Compression mode                         : Lossy
  64. Stream size                              : 568 MiB (2%)
  65. Title                                    : Joy.2015.2160p.BluRay.x264.8bit.SDR.DTS-HD.MA.5.1-SWTYBLZ
  66. Language                                 : English
  67. Service kind                             : Complete Main
  68. Default                                  : No
  69. Forced                                   : No

  70. Text #1
  71. ID                                       : 4
  72. Format                                   : UTF-8
  73. Codec ID                                 : S_TEXT/UTF8
  74. Codec ID/Info                            : UTF-8 Plain Text
  75. Duration                                 : 1 h 55 min
  76. Bit rate                                 : 85 b/s
  77. Count of elements                        : 2005
  78. Stream size                              : 72.2 KiB (0%)
  79. Title                                    : English-SRT
  80. Language                                 : English
  81. Default                                  : Yes
  82. Forced                                   : No

  83. Text #2
  84. ID                                       : 5
  85. Format                                   : PGS
  86. Muxing mode                              : zlib
  87. Codec ID                                 : S_HDMV/PGS
  88. Codec ID/Info                            : Picture based subtitle format used on BDs/HD-DVDs
  89. Duration                                 : 1 h 57 min
  90. Bit rate                                 : 62.3 kb/s
  91. Count of elements                        : 5192
  92. Stream size                              : 52.3 MiB (0%)
  93. Title                                    : English-PGS
  94. Language                                 : English
  95. Default                                  : No
  96. Forced                                   : No

  97. Text #3
  98. ID                                       : 6
  99. Format                                   : PGS
  100. Muxing mode                              : zlib
  101. Codec ID                                 : S_HDMV/PGS
  102. Codec ID/Info                            : Picture based subtitle format used on BDs/HD-DVDs
  103. Duration                                 : 2 h 3 min
  104. Bit rate                                 : 44.8 kb/s
  105. Count of elements                        : 3698
  106. Stream size                              : 39.4 MiB (0%)
  107. Title                                    : Spanish-PGS
  108. Language                                 : Spanish
  109. Default                                  : No
  110. Forced                                   : No

  111. Text #4
  112. ID                                       : 7
  113. Format                                   : PGS
  114. Muxing mode                              : zlib
  115. Codec ID                                 : S_HDMV/PGS
  116. Codec ID/Info                            : Picture based subtitle format used on BDs/HD-DVDs
  117. Duration                                 : 2 h 3 min
  118. Bit rate                                 : 36.2 kb/s
  119. Count of elements                        : 3558
  120. Stream size                              : 31.9 MiB (0%)
  121. Title                                    : Frecnch-PGS
  122. Language                                 : French
  123. Default                                  : No
  124. Forced                                   : No

  125. Text #5
  126. ID                                       : 8
  127. Format                                   : PGS
  128. Muxing mode                              : zlib
  129. Codec ID                                 : S_HDMV/PGS
  130. Codec ID/Info                            : Picture based subtitle format used on BDs/HD-DVDs
  131. Duration                                 : 2 h 3 min
  132. Bit rate                                 : 43.0 kb/s
  133. Count of elements                        : 3014
  134. Stream size                              : 37.9 MiB (0%)
  135. Title                                    : Danish-PGS
  136. Language                                 : Danish
  137. Default                                  : No
  138. Forced                                   : No

  139. Text #6
  140. ID                                       : 9
  141. Format                                   : PGS
  142. Muxing mode                              : zlib
  143. Codec ID                                 : S_HDMV/PGS
  144. Codec ID/Info                            : Picture based subtitle format used on BDs/HD-DVDs
  145. Duration                                 : 2 h 3 min
  146. Bit rate                                 : 38.9 kb/s
  147. Count of elements                        : 3244
  148. Stream size                              : 34.2 MiB (0%)
  149. Title                                    : Dutch-PGS
  150. Language                                 : Dutch
  151. Default                                  : No
  152. Forced                                   : No

  153. Text #7
  154. ID                                       : 10
  155. Format                                   : PGS
  156. Muxing mode                              : zlib
  157. Codec ID                                 : S_HDMV/PGS
  158. Codec ID/Info                            : Picture based subtitle format used on BDs/HD-DVDs
  159. Duration                                 : 2 h 3 min
  160. Bit rate                                 : 39.3 kb/s
  161. Count of elements                        : 3924
  162. Stream size                              : 34.6 MiB (0%)
  163. Title                                    : Finnish-PGS
  164. Language                                 : Finnish
  165. Default                                  : No
  166. Forced                                   : No

  167. Text #8
  168. ID                                       : 11
  169. Format                                   : PGS
  170. Muxing mode                              : zlib
  171. Codec ID                                 : S_HDMV/PGS
  172. Codec ID/Info                            : Picture based subtitle format used on BDs/HD-DVDs
  173. Duration                                 : 2 h 3 min
  174. Bit rate                                 : 48.5 kb/s
  175. Count of elements                        : 3806
  176. Stream size                              : 42.7 MiB (0%)
  177. Title                                    : German-PGS
  178. Language                                 : German
  179. Default                                  : No
  180. Forced                                   : No

  181. Text #9
  182. ID                                       : 12
  183. Format                                   : PGS
  184. Muxing mode                              : zlib
  185. Codec ID                                 : S_HDMV/PGS
  186. Codec ID/Info                            : Picture based subtitle format used on BDs/HD-DVDs
  187. Duration                                 : 2 h 3 min
  188. Bit rate                                 : 44.6 kb/s
  189. Count of elements                        : 4028
  190. Stream size                              : 39.3 MiB (0%)
  191. Title                                    : Italian-PGS
  192. Language                                 : Italian
  193. Default                                  : No
  194. Forced                                   : No

  195. Text #10
  196. ID                                       : 13
  197. Format                                   : PGS
  198. Muxing mode                              : zlib
  199. Codec ID                                 : S_HDMV/PGS
  200. Codec ID/Info                            : Picture based subtitle format used on BDs/HD-DVDs
  201. Duration                                 : 2 h 3 min
  202. Bit rate                                 : 46.2 kb/s
  203. Count of elements                        : 3996
  204. Stream size                              : 40.7 MiB (0%)
  205. Title                                    : Norwegian-PGS
  206. Language                                 : Norwegian
  207. Default                                  : No
  208. Forced                                   : No

  209. Text #11
  210. ID                                       : 14
  211. Format                                   : PGS
  212. Muxing mode                              : zlib
  213. Codec ID                                 : S_HDMV/PGS
  214. Codec ID/Info                            : Picture based subtitle format used on BDs/HD-DVDs
  215. Duration                                 : 2 h 3 min
  216. Bit rate                                 : 37.6 kb/s
  217. Count of elements                        : 3988
  218. Stream size                              : 33.1 MiB (0%)
  219. Title                                    : Swedish-PGS
  220. Language                                 : Swedish
  221. Default                                  : No
  222. Forced                                   : No

  223. Menu
  224. 00:00:00.000                             : en:Chapter 1
  225. 00:06:14.082                             : en:Chapter 2
  226. 00:09:54.093                             : en:Chapter 3
  227. 00:13:43.030                             : en:Chapter 4
  228. 00:19:26.748                             : en:Chapter 5
  229. 00:22:54.831                             : en:Chapter 6
  230. 00:28:09.312                             : en:Chapter 7
  231. 00:32:45.672                             : en:Chapter 8
  232. 00:36:53.628                             : en:Chapter 9
  233. 00:44:02.806                             : en:Chapter 10
  234. 00:48:17.019                             : en:Chapter 11
  235. 00:53:25.827                             : en:Chapter 12
  236. 00:56:57.914                             : en:Chapter 13
  237. 01:01:13.127                             : en:Chapter 14
  238. 01:06:48.671                             : en:Chapter 15
  239. 01:12:52.493                             : en:Chapter 16
  240. 01:16:56.445                             : en:Chapter 17
  241. 01:20:53.765                             : en:Chapter 18
  242. 01:26:14.210                             : en:Chapter 19
  243. 01:30:24.836                             : en:Chapter 20
  244. 01:35:51.078                             : en:Chapter 21
  245. 01:41:28.707                             : en:Chapter 22
  246. 01:47:24.354                             : en:Chapter 23
  247. 01:53:58.623                             : en:Chapter 24

复制代码
复制代码
奋斗的乔伊/翻转幸运 Joy.2015.2160p.BluRay.x264.8bit.SDR.DTS-HD.MA.5.1-SWTYBLZ 37.07GB-2.png 奋斗的乔伊/翻转幸运 Joy.2015.2160p.BluRay.x264.8bit.SDR.DTS-HD.MA.5.1-SWTYBLZ 37.07GB-3.png 奋斗的乔伊/翻转幸运 Joy.2015.2160p.BluRay.x264.8bit.SDR.DTS-HD.MA.5.1-SWTYBLZ 37.07GB-4.png 奋斗的乔伊/翻转幸运 Joy.2015.2160p.BluRay.x264.8bit.SDR.DTS-HD.MA.5.1-SWTYBLZ 37.07GB-5.png 奋斗的乔伊/翻转幸运 Joy.2015.2160p.BluRay.x264.8bit.SDR.DTS-HD.MA.5.1-SWTYBLZ 37.07GB-6.png 奋斗的乔伊/翻转幸运 Joy.2015.2160p.BluRay.x264.8bit.SDR.DTS-HD.MA.5.1-SWTYBLZ 37.07GB-7.png






回复

使用道具 举报

懒得打字嘛,点击右侧快捷回复 【右侧内容,后台自定义】
您需要登录后才可以回帖 登录 | 立即加入

本版积分规则

Archiver| |网站地图

Copyright © 2024 Comsenz Inc. Powered by 蓝光电影网

本站内容由用户自主分享和转载自互联网,转载目的在于传递更多信息,并不代表本网赞同其观点和对其真实性负责。

如有侵权、违反国家法律政策行为,请联系我们,我们会第一时间及时清除和处理!

举报反馈邮箱:4k1080.com@gmail.com

快速回复 返回顶部 返回列表