找回密码

查看: 2473|回复: 1

愤怒的小鸟/愤怒鸟大电影 Angry.Birds.2016.2160p.BluRay.x265.10bit.SDR.DTS-HD.MA.TrueHD.7.1.Atmos-SWTYBLZ 24.80GB

[复制链接]
蓝光币
1974
发表于 2017-12-21 20:35:17 | 显示全部楼层 |阅读模式
愤慨的小鸟/愤慨鸟大电影 Angry.Birds.2016.2160p.BluRay.x265.10bit.SDR.DTS-HD.MA.TrueHD.7.1.Atmos-SWTYBLZ 24.80GB-1.jpg
◎译  名 愤慨的小鸟/愤慨鸟大电影/愤慨鸟玩电影/愤慨的小鸟大电影
◎片  名 Angry Birds
◎年  代 2016
◎产  地 芬兰/美国
◎类  别 笑剧/行动/动画
◎语  言 英语
◎上映日期 2016-05-13(芬兰)/2016-05-20(中国大陆)/2016-05-20(美国)
◎IMDb评分  6.3/10 from 61,037 users
◎IMDb链接  http://www.imdb.com/title/tt1985949/
◎豆瓣评分 7.0/10 from 69,411 users
◎豆瓣链接 https://movie.douban.com/subject/6873736/
◎片  长 97分钟
◎导  演 费格尔·雷利 Fergal Reilly / 克雷·卡提斯 Clay Kaytis
◎主  演 杰森·苏戴奇斯 Jason Sudeikis
      乔什·盖德 Josh Gad
      丹尼·麦克布耐德 Danny McBride
      玛娅·鲁道夫 Maya Rudolph
      西恩·潘 Sean Penn
      凯特·麦克金农 Kate McKinnon
      彼特·丁拉基 Peter Dinklage
      比尔·哈德尔 Bill Hader
      托尼·海尔 Tony Hale
      丹尼尔·布鲁克斯 Danielle Brooks
      吉莉恩·贝尔 Jillian Bell
      科甘·迈克尔·基 Keegan Michael Key
      伊克·巴里霍尔兹 Ike Barinholtz
      吉奥弗瑞·阿伦德 Geoffrey Arend
      麦克斯·查尔斯 Max Charles
      布莱克·谢尔顿 Blake Shelton
      泰塔斯·伯吉斯 Tituss Burgess
      汉尼拔·布勒斯 Hannibal Buress
      克里斯黛拉·阿朗索 Cristela Alonzo
      安东尼·帕迪利亚 Anthony Padilla
      比利·艾希纳 Billy Eichner

◎简  介

  在一座与世隔断的小岛上,生在世品种繁多且欢畅无忧的小鸟。不外他们中心总有异类存在,比如离群索居的胖红(杰森·苏戴奇斯 Jason Sudeikis 配音),孤儿身世且有些另类的怪异容貌让他成为其他鸟儿嘲笑和挖苦的工具。久而久之,胖红也养成了促狭易怒的性情。在被法官叛出参 加情感治理课程时代,他结识了速度极快的飞镖黄(乔什·加德 Josh Gad 配音)和一不谨慎便会引发爆炸的炸弹黑(丹尼·麦克布耐德 Danny McBride 配音)。三个怪胎由此闹出很多的笑话。未过量久,奥秘的绿猪莱纳德(比尔·哈德尔 Bill Hader 配音)带动手下来到小岛,他们展现出和睦的面孔,可又恍如在黑暗策划这什么。
  岛上只要胖红对绿猪的到来布满防备,而他的担忧也很快获得了考证……

◎获奖情况

  第3届豆瓣电影年度榜单  (2016)
  5月最受关注电影(提名)



  1. Video
  2. ID                                       : 1
  3. Format                                   : HEVC
  4. Format/Info                              : High Efficiency Video Coding
  5. Format profile                           : Main [url=mailto:10@L5.1]10@L5.1[/url]@High
  6. Codec ID                                 : V_MPEGH/ISO/HEVC
  7. Duration                                 : 1 h 37 min
  8. Bit rate                                 : 26.3 Mb/s
  9. Width                                    : 3 840 pixels
  10. Height                                   : 2 076 pixels
  11. Display aspect ratio                     : 1.85:1
  12. Frame rate mode                          : Constant
  13. Frame rate                               : 23.976 (24000/1001) FPS
  14. Color space                              : YUV
  15. Chroma subsampling                       : 4:2:0
  16. Bit depth                                : 10 bits
  17. Bits/(Pixel*Frame)                       : 0.137
  18. Stream size                              : 17.8GB (73%)
  19. Title                                    : Angry.Birds.2016.2160p.BluRay.x265.10bit.SDR.DTS-HD.MA.TrueHD.7.1.Atmos-SWTYBLZ
  20. Writing library                          : x265 2.5+4-b4a5bcfe29c7:[Windows][GCC 4.9.3][64 bit] 10bit
  21. Encoding settings                        : cpuid=1173503 / frame-threads=16 / numa-pools=24,24,24,24 / wpp / no-pmode / no-pme / no-psnr / no-ssim / log-level=2 / input-csp=1 / input-res=3840x2076 / interlace=0 / total-frames=0 / level-idc=51 / high-tier=1 / uhd-bd=0 / ref=3 / no-allow-non-conformance / repeat-headers / annexb / aud / hrd / info / hash=0 / no-temporal-layers / no-open-gop / min-keyint=1 / keyint=24 / bframes=4 / b-adapt=2 / b-pyramid / bframe-bias=0 / rc-lookahead=25 / lookahead-slices=4 / scenecut=40 / no-intra-refresh / ctu=64 / min-cu-size=8 / no-rect / no-amp / max-tu-size=32 / tu-inter-depth=1 / tu-intra-depth=1 / limit-tu=0 / rdoq-level=0 / dynamic-rd=0.00 / no-ssim-rd / signhide / no-tskip / nr-intra=0 / nr-inter=0 / no-constrained-intra / strong-intra-smoothing / max-merge=2 / limit-refs=3 / no-limit-modes / me=1 / subme=2 / merange=57 / temporal-mvp / weightp / no-weightb / no-analyze-src-pics / deblock=0:0 / no-sao / no-sao-non-deblock / rd=3 / no-early-skip / rskip / no-fast-intra / no-tskip-fast / no-cu-lossless / no-b-intra / rdpenalty=0 / psy-rd=2.00 / psy-rdoq=0.00 / no-rd-refine / analysis-reuse-mode=0 / no-lossless / cbqpoffs=0 / crqpoffs=0 / rc=crf / crf=16.0 / qcomp=0.60 / qpstep=4 / stats-write=0 / stats-read=0 / vbv-maxrate=160000 / vbv-bufsize=160000 / vbv-init=0.9 / crf-max=0.0 / crf-min=0.0 / ipratio=1.40 / pbratio=1.30 / aq-mode=1 / aq-strength=1.00 / cutree / zone-count=0 / no-strict-cbr / qg-size=32 / no-rc-grain / qpmax=69 / qpmin=0 / no-const-vbv / sar=1 / overscan=0 / videoformat=5 / range=0 / colorprim=2 / transfer=2 / colormatrix=2 / chromaloc=0 / display-window=0 / max-cll=0,0 / min-luma=0 / max-luma=1023 / log2-max-poc-lsb=8 / vui-timing-info / vui-hrd-info / slices=1 / opt-qp-pps / opt-ref-list-length-pps / no-multi-pass-opt-rps / scenecut-bias=0.05 / no-opt-cu-delta-qp / no-aq-motion / no-hdr / no-hdr-opt / no-dhdr10-opt / analysis-reuse-level=5 / scale-factor=0 / refine-intra=0 / refine-inter=0 / refine-mv=0 / no-limit-sao / ctu-info=0
  22. Default                                  : Yes
  23. Forced                                   : No

  24. Audio #1
  25. ID                                       : 2
  26. Format                                   : TrueHD
  27. Format profile                           : TrueHD+Atmos / TrueHD
  28. Codec ID                                 : A_TRUEHD
  29. Duration                                 : 1 h 37 min
  30. Bit rate mode                            : Variable
  31. Bit rate                                 : 4 747 kb/s
  32. Maximum bit rate                         : 6 972 kb/s
  33. Channel(s)                               : Object Based / 8 channels
  34. Channel positions                        : Object Based / Front: L C R, Side: L R, Back: L R, LFE
  35. Sampling rate                            :  / 48.0 kHz
  36. Frame rate                               : 1 200.000 FPS (40 SPF)
  37. Compression mode                         : Lossless
  38. Stream size                              : 3.22GB (13%)
  39. Title                                    : Angry.Birds.2016.2160p.BluRay.x265.10bit.SDR.DTS-HD.MA.TrueHD.7.1.Atmos-SWTYBLZ
  40. Language                                 : English
  41. Default                                  : Yes
  42. Forced                                   : No

  43. Audio #2
  44. ID                                       : 3
  45. Format                                   : DTS
  46. Format/Info                              : Digital Theater Systems
  47. Format profile                           : MA / Core
  48. Codec ID                                 : A_DTS
  49. Duration                                 : 1 h 37 min
  50. Bit rate mode                            : Variable / Constant
  51. Bit rate                                 : 4 192 kb/s / 1 509 kb/s
  52. Channel(s)                               : 8 channels / 6 channels
  53. Channel positions                        : Front: L C R, Side: L R, Back: L R, LFE / Front: L C R, Side: L R, LFE
  54. Sampling rate                            : 48.0 kHz
  55. Frame rate                               : 93.750 FPS (512 SPF)
  56. Bit depth                                : 24 bits
  57. Compression mode                         : Lossless / Lossy
  58. Stream size                              : 2.85GB (12%)
  59. Title                                    : Angry.Birds.2016.2160p.BluRay.x265.10bit.SDR.DTS-HD.MA.TrueHD.7.1.Atmos-SWTYBLZ
  60. Language                                 : English
  61. Default                                  : No
  62. Forced                                   : No

  63. Audio #3
  64. ID                                       : 4
  65. Format                                   : AC-3
  66. Format/Info                              : Audio Coding 3
  67. Codec ID                                 : A_AC3
  68. Duration                                 : 1 h 37 min
  69. Bit rate mode                            : Constant
  70. Bit rate                                 : 640 kb/s
  71. Channel(s)                               : 6 channels
  72. Channel positions                        : Front: L C R, Side: L R, LFE
  73. Sampling rate                            : 48.0 kHz
  74. Frame rate                               : 31.250 FPS (1536 SPF)
  75. Bit depth                                : 16 bits
  76. Compression mode                         : Lossy
  77. Stream size                              : 445 MiB (2%)
  78. Title                                    : Angry.Birds.2016.2160p.BluRay.x265.10bit.SDR.DTS-HD.MA.TrueHD.7.1.Atmos-SWTYBLZ
  79. Language                                 : English
  80. Service kind                             : Complete Main
  81. Default                                  : No
  82. Forced                                   : No

  83. Text #1
  84. ID                                       : 5
  85. Format                                   : UTF-8
  86. Codec ID                                 : S_TEXT/UTF8
  87. Codec ID/Info                            : UTF-8 Plain Text
  88. Duration                                 : 1 h 32 min
  89. Bit rate                                 : 72 b/s
  90. Count of elements                        : 1820
  91. Stream size                              : 49.1 KiB (0%)
  92. Title                                    : English-SRT
  93. Language                                 : English
  94. Default                                  : Yes
  95. Forced                                   : No

  96. Text #2
  97. ID                                       : 6
  98. Format                                   : PGS
  99. Muxing mode                              : zlib
  100. Codec ID                                 : S_HDMV/PGS
  101. Codec ID/Info                            : Picture based subtitle format used on BDs/HD-DVDs
  102. Duration                                 : 1 h 32 min
  103. Bit rate                                 : 61.7 kb/s
  104. Count of elements                        : 4561
  105. Stream size                              : 40.8 MiB (0%)
  106. Title                                    : English-PGS
  107. Language                                 : English
  108. Default                                  : No
  109. Forced                                   : No

  110. Text #3
  111. ID                                       : 7
  112. Format                                   : PGS
  113. Muxing mode                              : zlib
  114. Codec ID                                 : S_HDMV/PGS
  115. Codec ID/Info                            : Picture based subtitle format used on BDs/HD-DVDs
  116. Duration                                 : 1 h 29 min
  117. Bit rate                                 : 41.7 kb/s
  118. Count of elements                        : 3055
  119. Stream size                              : 26.6 MiB (0%)
  120. Title                                    : English-SDH-PGS
  121. Language                                 : English
  122. Default                                  : No
  123. Forced                                   : No

  124. Text #4
  125. ID                                       : 8
  126. Format                                   : PGS
  127. Muxing mode                              : zlib
  128. Codec ID                                 : S_HDMV/PGS
  129. Codec ID/Info                            : Picture based subtitle format used on BDs/HD-DVDs
  130. Duration                                 : 1 h 32 min
  131. Bit rate                                 : 61.8 kb/s
  132. Count of elements                        : 4561
  133. Stream size                              : 40.9 MiB (0%)
  134. Title                                    : English-PGS
  135. Language                                 : English
  136. Default                                  : No
  137. Forced                                   : No

  138. Text #5
  139. ID                                       : 9
  140. Format                                   : PGS
  141. Muxing mode                              : zlib
  142. Codec ID                                 : S_HDMV/PGS
  143. Codec ID/Info                            : Picture based subtitle format used on BDs/HD-DVDs
  144. Duration                                 : 1 h 29 min
  145. Bit rate                                 : 41.7 kb/s
  146. Count of elements                        : 3052
  147. Stream size                              : 26.6 MiB (0%)
  148. Title                                    : English-SDH-PGS
  149. Language                                 : English
  150. Default                                  : No
  151. Forced                                   : No

  152. Text #6
  153. ID                                       : 10
  154. Format                                   : PGS
  155. Muxing mode                              : zlib
  156. Codec ID                                 : S_HDMV/PGS
  157. Codec ID/Info                            : Picture based subtitle format used on BDs/HD-DVDs
  158. Duration                                 : 1 h 35 min
  159. Bit rate                                 : 33.5 kb/s
  160. Count of elements                        : 2864
  161. Stream size                              : 23.0 MiB (0%)
  162. Title                                    : Chinese-PGS
  163. Language                                 : Chinese
  164. Default                                  : No
  165. Forced                                   : No

  166. Text #7
  167. ID                                       : 11
  168. Format                                   : PGS
  169. Muxing mode                              : zlib
  170. Codec ID                                 : S_HDMV/PGS
  171. Codec ID/Info                            : Picture based subtitle format used on BDs/HD-DVDs
  172. Duration                                 : 1 h 29 min
  173. Bit rate                                 : 41.2 kb/s
  174. Count of elements                        : 3235
  175. Stream size                              : 26.3 MiB (0%)
  176. Title                                    : Danish-PGS
  177. Language                                 : Danish
  178. Default                                  : No
  179. Forced                                   : No

  180. Text #8
  181. ID                                       : 12
  182. Format                                   : PGS
  183. Muxing mode                              : zlib
  184. Codec ID                                 : S_HDMV/PGS
  185. Codec ID/Info                            : Picture based subtitle format used on BDs/HD-DVDs
  186. Duration                                 : 1 h 29 min
  187. Bit rate                                 : 43.0 kb/s
  188. Count of elements                        : 3245
  189. Stream size                              : 27.5 MiB (0%)
  190. Title                                    : Estonian-PGS
  191. Language                                 : Estonian
  192. Default                                  : No
  193. Forced                                   : No

  194. Text #9
  195. ID                                       : 13
  196. Format                                   : PGS
  197. Muxing mode                              : zlib
  198. Codec ID                                 : S_HDMV/PGS
  199. Codec ID/Info                            : Picture based subtitle format used on BDs/HD-DVDs
  200. Duration                                 : 1 h 35 min
  201. Bit rate                                 : 34.3 kb/s
  202. Count of elements                        : 3008
  203. Stream size                              : 23.5 MiB (0%)
  204. Title                                    : Finnish-PGS
  205. Language                                 : Finnish
  206. Default                                  : No
  207. Forced                                   : No

  208. Text #10
  209. ID                                       : 14
  210. Format                                   : PGS
  211. Muxing mode                              : zlib
  212. Codec ID                                 : S_HDMV/PGS
  213. Codec ID/Info                            : Picture based subtitle format used on BDs/HD-DVDs
  214. Duration                                 : 1 h 35 min
  215. Bit rate                                 : 29.2 kb/s
  216. Count of elements                        : 2738
  217. Stream size                              : 20.0 MiB (0%)
  218. Title                                    : French-PGS
  219. Language                                 : French
  220. Default                                  : No
  221. Forced                                   : No

  222. Text #11
  223. ID                                       : 15
  224. Format                                   : PGS
  225. Muxing mode                              : zlib
  226. Codec ID                                 : S_HDMV/PGS
  227. Codec ID/Info                            : Picture based subtitle format used on BDs/HD-DVDs
  228. Duration                                 : 1 h 35 min
  229. Bit rate                                 : 34.2 kb/s
  230. Count of elements                        : 2812
  231. Stream size                              : 23.5 MiB (0%)
  232. Title                                    : Indonesian-PGS
  233. Language                                 : Indonesian
  234. Default                                  : No
  235. Forced                                   : No

  236. Text #12
  237. ID                                       : 16
  238. Format                                   : PGS
  239. Muxing mode                              : zlib
  240. Codec ID                                 : S_HDMV/PGS
  241. Codec ID/Info                            : Picture based subtitle format used on BDs/HD-DVDs
  242. Duration                                 : 1 h 30 min
  243. Bit rate                                 : 23.6 kb/s
  244. Count of elements                        : 2836
  245. Stream size                              : 15.2 MiB (0%)
  246. Title                                    : Korean-PGS
  247. Language                                 : Korean
  248. Default                                  : No
  249. Forced                                   : No

  250. Text #13
  251. ID                                       : 17
  252. Format                                   : PGS
  253. Muxing mode                              : zlib
  254. Codec ID                                 : S_HDMV/PGS
  255. Codec ID/Info                            : Picture based subtitle format used on BDs/HD-DVDs
  256. Duration                                 : 1 h 29 min
  257. Bit rate                                 : 39.8 kb/s
  258. Count of elements                        : 3161
  259. Stream size                              : 25.4 MiB (0%)
  260. Title                                    : Latvian-PGS
  261. Language                                 : Latvian
  262. Default                                  : No
  263. Forced                                   : No

  264. Text #14
  265. ID                                       : 18
  266. Format                                   : PGS
  267. Muxing mode                              : zlib
  268. Codec ID                                 : S_HDMV/PGS
  269. Codec ID/Info                            : Picture based subtitle format used on BDs/HD-DVDs
  270. Duration                                 : 1 h 29 min
  271. Bit rate                                 : 41.1 kb/s
  272. Count of elements                        : 3157
  273. Stream size                              : 26.2 MiB (0%)
  274. Title                                    : Lithuanian-PGS
  275. Language                                 : Lithuanian
  276. Default                                  : No
  277. Forced                                   : No

  278. Text #15
  279. ID                                       : 19
  280. Format                                   : PGS
  281. Muxing mode                              : zlib
  282. Codec ID                                 : S_HDMV/PGS
  283. Codec ID/Info                            : Picture based subtitle format used on BDs/HD-DVDs
  284. Duration                                 : 1 h 35 min
  285. Bit rate                                 : 29.7 kb/s
  286. Count of elements                        : 2618
  287. Stream size                              : 20.3 MiB (0%)
  288. Title                                    : Norwegian-PGS
  289. Language                                 : Norwegian
  290. Default                                  : No
  291. Forced                                   : No

  292. Text #16
  293. ID                                       : 20
  294. Format                                   : PGS
  295. Muxing mode                              : zlib
  296. Codec ID                                 : S_HDMV/PGS
  297. Codec ID/Info                            : Picture based subtitle format used on BDs/HD-DVDs
  298. Duration                                 : 1 h 35 min
  299. Bit rate                                 : 35.3 kb/s
  300. Count of elements                        : 2777
  301. Stream size                              : 24.2 MiB (0%)
  302. Title                                    : Portuguese-PGS
  303. Language                                 : Portuguese
  304. Default                                  : No
  305. Forced                                   : No

  306. Text #17
  307. ID                                       : 21
  308. Format                                   : PGS
  309. Muxing mode                              : zlib
  310. Codec ID                                 : S_HDMV/PGS
  311. Codec ID/Info                            : Picture based subtitle format used on BDs/HD-DVDs
  312. Duration                                 : 1 h 29 min
  313. Bit rate                                 : 38.0 kb/s
  314. Count of elements                        : 3159
  315. Stream size                              : 24.2 MiB (0%)
  316. Title                                    : Russian-PGS
  317. Language                                 : Russian
  318. Default                                  : No
  319. Forced                                   : No

  320. Text #18
  321. ID                                       : 22
  322. Format                                   : PGS
  323. Muxing mode                              : zlib
  324. Codec ID                                 : S_HDMV/PGS
  325. Codec ID/Info                            : Picture based subtitle format used on BDs/HD-DVDs
  326. Duration                                 : 1 h 36 min
  327. Bit rate                                 : 36.6 kb/s
  328. Count of elements                        : 2787
  329. Stream size                              : 25.1 MiB (0%)
  330. Title                                    : Spanish-PGS
  331. Language                                 : Spanish
  332. Default                                  : No
  333. Forced                                   : No

  334. Text #19
  335. ID                                       : 23
  336. Format                                   : PGS
  337. Muxing mode                              : zlib
  338. Codec ID                                 : S_HDMV/PGS
  339. Codec ID/Info                            : Picture based subtitle format used on BDs/HD-DVDs
  340. Duration                                 : 1 h 35 min
  341. Bit rate                                 : 29.1 kb/s
  342. Count of elements                        : 1948
  343. Stream size                              : 19.9 MiB (0%)
  344. Title                                    : Swedish-PGS
  345. Language                                 : Swedish
  346. Default                                  : No
  347. Forced                                   : No

  348. Text #20
  349. ID                                       : 24
  350. Format                                   : PGS
  351. Muxing mode                              : zlib
  352. Codec ID                                 : S_HDMV/PGS
  353. Codec ID/Info                            : Picture based subtitle format used on BDs/HD-DVDs
  354. Duration                                 : 1 h 35 min
  355. Bit rate                                 : 27.3 kb/s
  356. Count of elements                        : 2842
  357. Stream size                              : 18.7 MiB (0%)
  358. Title                                    : Thai-PGS
  359. Language                                 : Thai
  360. Default                                  : No
  361. Forced                                   : No

  362. Text #21
  363. ID                                       : 25
  364. Format                                   : PGS
  365. Muxing mode                              : zlib
  366. Codec ID                                 : S_HDMV/PGS
  367. Codec ID/Info                            : Picture based subtitle format used on BDs/HD-DVDs
  368. Duration                                 : 1 h 29 min
  369. Bit rate                                 : 37.5 kb/s
  370. Count of elements                        : 3159
  371. Stream size                              : 23.9 MiB (0%)
  372. Title                                    : Ukrainian-PGS
  373. Language                                 : Ukrainian
  374. Default                                  : No
  375. Forced                                   : No

  376. Text #22
  377. ID                                       : 26
  378. Format                                   : PGS
  379. Muxing mode                              : zlib
  380. Codec ID                                 : S_HDMV/PGS
  381. Codec ID/Info                            : Picture based subtitle format used on BDs/HD-DVDs
  382. Duration                                 : 1 h 28 min
  383. Bit rate                                 : 45.3 kb/s
  384. Count of elements                        : 2820
  385. Stream size                              : 28.7 MiB (0%)
  386. Title                                    : Vietnamese-PGS
  387. Language                                 : Vietnamese
  388. Default                                  : No
  389. Forced                                   : No

  390. Text #23
  391. ID                                       : 27
  392. Format                                   : PGS
  393. Muxing mode                              : zlib
  394. Codec ID                                 : S_HDMV/PGS
  395. Codec ID/Info                            : Picture based subtitle format used on BDs/HD-DVDs
  396. Duration                                 : 1 h 29 min
  397. Bit rate                                 : 29.0 kb/s
  398. Count of elements                        : 2828
  399. Stream size                              : 18.5 MiB (0%)
  400. Title                                    : Chinese-PGS
  401. Language                                 : Chinese
  402. Default                                  : No
  403. Forced                                   : No

  404. Text #24
  405. ID                                       : 28
  406. Format                                   : PGS
  407. Muxing mode                              : zlib
  408. Codec ID                                 : S_HDMV/PGS
  409. Codec ID/Info                            : Picture based subtitle format used on BDs/HD-DVDs
  410. Duration                                 : 1 h 36 min
  411. Bit rate                                 : 33.0 kb/s
  412. Count of elements                        : 3146
  413. Stream size                              : 22.7 MiB (0%)
  414. Title                                    : Chinese-PGS
  415. Language                                 : Chinese
  416. Default                                  : No
  417. Forced                                   : No

  418. Menu
  419. 00:00:00.000                             : en:Chapter 1
  420. 00:07:05.091                             : en:Chapter 2
  421. 00:13:38.108                             : en:Chapter 3
  422. 00:20:22.638                             : en:Chapter 4
  423. 00:25:38.620                             : en:Chapter 5
  424. 00:32:57.392                             : en:Chapter 6
  425. 00:38:34.812                             : en:Chapter 7
  426. 00:41:36.327                             : en:Chapter 8
  427. 00:47:12.955                             : en:Chapter 9
  428. 00:52:04.287                             : en:Chapter 10
  429. 00:56:07.697                             : en:Chapter 11
  430. 00:59:08.711                             : en:Chapter 12
  431. 01:03:43.319                             : en:Chapter 13
  432. 01:11:45.801                             : en:Chapter 14
  433. 01:18:55.522                             : en:Chapter 15
  434. 01:23:54.821                             : en:Chapter 16

复制代码
复制代码
愤慨的小鸟/愤慨鸟大电影 Angry.Birds.2016.2160p.BluRay.x265.10bit.SDR.DTS-HD.MA.TrueHD.7.1.Atmos-SWTYBLZ 24.80GB-2.png 愤慨的小鸟/愤慨鸟大电影 Angry.Birds.2016.2160p.BluRay.x265.10bit.SDR.DTS-HD.MA.TrueHD.7.1.Atmos-SWTYBLZ 24.80GB-3.png 愤慨的小鸟/愤慨鸟大电影 Angry.Birds.2016.2160p.BluRay.x265.10bit.SDR.DTS-HD.MA.TrueHD.7.1.Atmos-SWTYBLZ 24.80GB-4.png 愤慨的小鸟/愤慨鸟大电影 Angry.Birds.2016.2160p.BluRay.x265.10bit.SDR.DTS-HD.MA.TrueHD.7.1.Atmos-SWTYBLZ 24.80GB-5.png 愤慨的小鸟/愤慨鸟大电影 Angry.Birds.2016.2160p.BluRay.x265.10bit.SDR.DTS-HD.MA.TrueHD.7.1.Atmos-SWTYBLZ 24.80GB-6.png 愤慨的小鸟/愤慨鸟大电影 Angry.Birds.2016.2160p.BluRay.x265.10bit.SDR.DTS-HD.MA.TrueHD.7.1.Atmos-SWTYBLZ 24.80GB-7.png






回复

使用道具 举报

懒得打字嘛,点击右侧快捷回复 【右侧内容,后台自定义】
您需要登录后才可以回帖 登录 | 立即加入

本版积分规则

Archiver| |网站地图

Copyright © 2024 Comsenz Inc. Powered by 蓝光电影网

本站内容由用户自主分享和转载自互联网,转载目的在于传递更多信息,并不代表本网赞同其观点和对其真实性负责。

如有侵权、违反国家法律政策行为,请联系我们,我们会第一时间及时清除和处理!

举报反馈邮箱:4k1080.com@gmail.com

快速回复 返回顶部 返回列表