找回密码

查看: 2983|回复: 0

勇士/勇者无敌 Warrior.2011.2160p.BluRay.x264.8bit.SDR.DTS-HD.MA.TrueHD.7.1.Atmos-SWTYBLZ 47.05GB

[复制链接]
蓝光币
1984
发表于 2017-12-21 20:37:36 | 显示全部楼层 |阅读模式
勇士/勇者无敌 Warrior.2011.2160p.BluRay.x264.8bit.SDR.DTS-HD.MA.TrueHD.7.1.Atmos-SWTYBLZ 47.05GB-1.jpg
◎译  名 勇士/勇者无敌/钢铁斗士/军人/拳击勇士
◎片  名 Warrior
◎年  代 2011
◎产  地 美国
◎类  别 剧情/活动/家庭
◎语  言 英语
◎上映日期 2011-09-09(美国)
◎IMDb评分  8.2/10 from 369,853 users
◎IMDb链接  http://www.imdb.com/title/tt1291584/
◎豆瓣评分 8.9/10 from 86,464 users
◎豆瓣链接 https://movie.douban.com/subject/3217169/
◎片  长 140分钟
◎导  演 加文·欧康诺 Gavin O'Connor
◎主  演 汤姆·哈迪 Tom Hardy
      乔尔·埃哲顿 Joel Edgerton
      尼克·诺特 Nick Nolte
      詹妮弗·莫里森 Jennifer Morrison
      弗兰克·格里罗 Frank Grillo
      凯文·杜恩 Kevin Dunn

◎简  介

  这是一个破裂的家庭,酗酒的教练父亲帕迪(尼克·诺特 Nick Nolte 饰)家暴妻子,次子汤米(汤姆·哈迪 Tom Hardy 饰)与不胜忍受的母亲远赴异乡;宗子布兰登(乔尔·埃哲顿 Joel Edgerton 饰)为了恋爱挑选留下,并以为今后可以获得父亲的重视与种植,但是最初父子还是各奔前程。时隔多年后,汤米带着母亲疾苦死去的哀痛记忆,以及在伊战中的惨重履历找到父亲,要求后者再度担任自己的教练,以加入MMA的重奖大赛;几近与此同时,昔日的职业肉搏选手、现在的中学物理教师布兰登为金钱所困扰,他不能忍受自己没法为妻女供给庇护,决议重返赛场。在MMA的赛场上,这对分手多年的兄弟将再度聚会,用血与汗的融合,化释相互的心结……

◎获奖情况

  第84届奥斯卡金像奖  (2012)
  最好男配角(提名) 尼克·诺特

  第21届MTV电影奖  (2012)
  MTV电影奖 最好打架(提名) 汤姆·哈迪 / 乔尔·埃哲顿

  第17届美国批评家挑选电影奖  (2012)
  最好男配角(提名) 尼克·诺特

  第16届圣地亚哥影评人协会奖  (2011)
  最好男配角 尼克·诺特

  第24届芝加哥影评人协会奖  (2011)
  最好男配角(提名) 尼克·诺特

  第14届美国青少年挑选奖  (2012)
  最好行动片男演员(提名) 汤姆·哈迪

  第2届豆瓣电影鑫像奖  (2012)
  鑫豆单元 最好影片(外语)(提名)
  鑫豆单元 最好男演员(外语)(提名) 汤姆·哈迪



  1. Video
  2. ID                                       : 1
  3. Format                                   : AVC
  4. Format/Info                              : Advanced Video Codec
  5. Format profile                           : [url=mailto:High@L5.1]High@L5.1[/url]
  6. Format settings                          : CABAC / 5 Ref Frames
  7. Format settings, CABAC                   : Yes
  8. Format settings, RefFrames               : 5 frames
  9. Codec ID                                 : V_MPEG4/ISO/AVC
  10. Duration                                 : 2 h 19 min
  11. Bit rate                                 : 38.9 Mb/s
  12. Width                                    : 3 840 pixels
  13. Height                                   : 1 600 pixels
  14. Display aspect ratio                     : 2.40:1
  15. Frame rate mode                          : Constant
  16. Frame rate                               : 23.976 (24000/1001) FPS
  17. Color space                              : YUV
  18. Chroma subsampling                       : 4:2:0
  19. Bit depth                                : 8 bits
  20. Scan type                                : Progressive
  21. Bits/(Pixel*Frame)                       : 0.264
  22. Stream size                              : 38.1GB (81%)
  23. Title                                    : Warrior.2011.2160p.BluRay.x264.8bit.SDR.DTS-HD.MA.TrueHD.7.1.Atmos-SWTYBLZ
  24. Writing library                          : x264 core 148 r2748 97eaef2
  25. Encoding settings                        : cabac=1 / ref=5 / deblock=1:-1:-1 / analyse=0x3:0x113 / me=umh / subme=10 / psy=1 / psy_rd=1.00:0.15 / mixed_ref=1 / me_range=48 / chroma_me=1 / trellis=2 / 8x8dct=1 / cqm=0 / deadzone=21,11 / fast_pskip=1 / chroma_qp_offset=-3 / threads=50 / lookahead_threads=4 / sliced_threads=0 / nr=0 / decimate=0 / interlaced=0 / bluray_compat=0 / constrained_intra=0 / bframes=3 / b_pyramid=2 / b_adapt=2 / b_bias=0 / direct=3 / weightb=1 / open_gop=0 / weightp=2 / keyint=250 / keyint_min=23 / scenecut=40 / intra_refresh=0 / rc_lookahead=50 / rc=crf / mbtree=1 / crf=22.0 / qcomp=0.60 / qpmin=0 / qpmax=69 / qpstep=4 / ip_ratio=1.40 / aq=1:1.00
  26. Default                                  : Yes
  27. Forced                                   : No

  28. Audio #1
  29. ID                                       : 2
  30. Format                                   : TrueHD
  31. Format profile                           : TrueHD+Atmos / TrueHD
  32. Codec ID                                 : A_TRUEHD
  33. Duration                                 : 2 h 19 min
  34. Bit rate mode                            : Variable
  35. Bit rate                                 : 4 335 kb/s
  36. Maximum bit rate                         : 8 205 kb/s
  37. Channel(s)                               : Object Based / 8 channels
  38. Channel positions                        : Object Based / Front: L C R, Side: L R, Back: L R, LFE
  39. Sampling rate                            :  / 48.0 kHz
  40. Frame rate                               : 1 200.000 FPS (40 SPF)
  41. Compression mode                         : Lossless
  42. Delay relative to video                  : 32 ms
  43. Stream size                              : 4.24GB (9%)
  44. Title                                    : Warrior.2011.2160p.BluRay.x264.8bit.SDR.DTS-HD.MA.TrueHD.7.1.Atmos-SWTYBLZ
  45. Language                                 : English
  46. Default                                  : Yes
  47. Forced                                   : No

  48. Audio #2
  49. ID                                       : 3
  50. Format                                   : DTS
  51. Format/Info                              : Digital Theater Systems
  52. Format profile                           : MA / Core
  53. Codec ID                                 : A_DTS
  54. Duration                                 : 2 h 19 min
  55. Bit rate mode                            : Variable / Constant
  56. Bit rate                                 : 3 840 kb/s / 1 509 kb/s
  57. Channel(s)                               : 8 channels / 6 channels
  58. Channel positions                        : Front: L C R, Side: L R, Back: L R, LFE / Front: L C R, Side: L R, LFE
  59. Sampling rate                            : 48.0 kHz
  60. Frame rate                               : 93.750 FPS (512 SPF)
  61. Bit depth                                : 24 bits
  62. Compression mode                         : Lossless / Lossy
  63. Stream size                              : 3.72GB (8%)
  64. Title                                    : Warrior.2011.2160p.BluRay.x264.8bit.SDR.DTS-HD.MA.TrueHD.7.1.Atmos-SWTYBLZ
  65. Language                                 : English
  66. Default                                  : No
  67. Forced                                   : No

  68. Audio #3
  69. ID                                       : 4
  70. Format                                   : AC-3
  71. Format/Info                              : Audio Coding 3
  72. Codec ID                                 : A_AC3
  73. Duration                                 : 2 h 19 min
  74. Bit rate mode                            : Constant
  75. Bit rate                                 : 640 kb/s
  76. Channel(s)                               : 6 channels
  77. Channel positions                        : Front: L C R, Side: L R, LFE
  78. Sampling rate                            : 48.0 kHz
  79. Frame rate                               : 31.250 FPS (1536 SPF)
  80. Bit depth                                : 16 bits
  81. Compression mode                         : Lossy
  82. Delay relative to video                  : 31 ms
  83. Stream size                              : 640 MiB (1%)
  84. Title                                    : Warrior.2011.2160p.BluRay.x264.8bit.SDR.DTS-HD.MA.TrueHD.7.1.Atmos-SWTYBLZ
  85. Language                                 : English
  86. Service kind                             : Complete Main
  87. Default                                  : No
  88. Forced                                   : No

  89. Text #1
  90. ID                                       : 5
  91. Format                                   : UTF-8
  92. Codec ID                                 : S_TEXT/UTF8
  93. Codec ID/Info                            : UTF-8 Plain Text
  94. Duration                                 : 2 h 8 min
  95. Bit rate                                 : 72 b/s
  96. Count of elements                        : 1859
  97. Stream size                              : 68.4 KiB (0%)
  98. Title                                    : English-SRT
  99. Language                                 : English
  100. Default                                  : Yes
  101. Forced                                   : No

  102. Text #2
  103. ID                                       : 6
  104. Format                                   : PGS
  105. Muxing mode                              : zlib
  106. Codec ID                                 : S_HDMV/PGS
  107. Codec ID/Info                            : Picture based subtitle format used on BDs/HD-DVDs
  108. Duration                                 : 2 h 8 min
  109. Bit rate                                 : 46.9 kb/s
  110. Count of elements                        : 3724
  111. Stream size                              : 42.9 MiB (0%)
  112. Title                                    : English-PGS
  113. Language                                 : English
  114. Default                                  : No
  115. Forced                                   : No

  116. Text #3
  117. ID                                       : 7
  118. Format                                   : PGS
  119. Muxing mode                              : zlib
  120. Codec ID                                 : S_HDMV/PGS
  121. Codec ID/Info                            : Picture based subtitle format used on BDs/HD-DVDs
  122. Duration                                 : 2 h 12 min
  123. Bit rate                                 : 48.6 kb/s
  124. Count of elements                        : 3998
  125. Stream size                              : 46.1 MiB (0%)
  126. Title                                    : English-SDH-PGS
  127. Language                                 : English
  128. Default                                  : No
  129. Forced                                   : No

  130. Text #4
  131. ID                                       : 8
  132. Format                                   : PGS
  133. Muxing mode                              : zlib
  134. Codec ID                                 : S_HDMV/PGS
  135. Codec ID/Info                            : Picture based subtitle format used on BDs/HD-DVDs
  136. Duration                                 : 2 h 8 min
  137. Bit rate                                 : 42.9 kb/s
  138. Count of elements                        : 3760
  139. Stream size                              : 39.3 MiB (0%)
  140. Title                                    : Spanish-PGS
  141. Language                                 : Spanish
  142. Default                                  : No
  143. Forced                                   : No

  144. Menu
  145. 00:00:00.000                             : en:Chapter 1
  146. 00:10:32.048                             : en:Chapter 2
  147. 00:16:45.921                             : en:Chapter 3
  148. 00:26:33.758                             : en:Chapter 4
  149. 00:39:08.179                             : en:Chapter 5
  150. 00:45:48.829                             : en:Chapter 6
  151. 00:51:28.126                             : en:Chapter 7
  152. 00:58:27.003                             : en:Chapter 8
  153. 01:06:01.666                             : en:Chapter 9
  154. 01:14:26.462                             : en:Chapter 10
  155. 01:22:32.113                             : en:Chapter 11
  156. 01:30:34.846                             : en:Chapter 12
  157. 01:40:45.247                             : en:Chapter 13
  158. 01:52:55.185                             : en:Chapter 14
  159. 02:00:20.296                             : en:Chapter 15
  160. 02:06:49.602                             : en:Chapter 16

复制代码
复制代码
勇士/勇者无敌 Warrior.2011.2160p.BluRay.x264.8bit.SDR.DTS-HD.MA.TrueHD.7.1.Atmos-SWTYBLZ 47.05GB-2.png 勇士/勇者无敌 Warrior.2011.2160p.BluRay.x264.8bit.SDR.DTS-HD.MA.TrueHD.7.1.Atmos-SWTYBLZ 47.05GB-3.png 勇士/勇者无敌 Warrior.2011.2160p.BluRay.x264.8bit.SDR.DTS-HD.MA.TrueHD.7.1.Atmos-SWTYBLZ 47.05GB-4.png 勇士/勇者无敌 Warrior.2011.2160p.BluRay.x264.8bit.SDR.DTS-HD.MA.TrueHD.7.1.Atmos-SWTYBLZ 47.05GB-5.png 勇士/勇者无敌 Warrior.2011.2160p.BluRay.x264.8bit.SDR.DTS-HD.MA.TrueHD.7.1.Atmos-SWTYBLZ 47.05GB-6.png 勇士/勇者无敌 Warrior.2011.2160p.BluRay.x264.8bit.SDR.DTS-HD.MA.TrueHD.7.1.Atmos-SWTYBLZ 47.05GB-7.png 勇士/勇者无敌 Warrior.2011.2160p.BluRay.x264.8bit.SDR.DTS-HD.MA.TrueHD.7.1.Atmos-SWTYBLZ 47.05GB-8.png 勇士/勇者无敌 Warrior.2011.2160p.BluRay.x264.8bit.SDR.DTS-HD.MA.TrueHD.7.1.Atmos-SWTYBLZ 47.05GB-9.png






回复

使用道具 举报

懒得打字嘛,点击右侧快捷回复 【右侧内容,后台自定义】
您需要登录后才可以回帖 登录 | 立即加入

本版积分规则

Archiver| |网站地图

Copyright © 2024 Comsenz Inc. Powered by 蓝光电影网

本站内容由用户自主分享和转载自互联网,转载目的在于传递更多信息,并不代表本网赞同其观点和对其真实性负责。

如有侵权、违反国家法律政策行为,请联系我们,我们会第一时间及时清除和处理!

举报反馈邮箱:4k1080.com@gmail.com

快速回复 返回顶部 返回列表