找回密码

查看: 2452|回复: 0

魔幻迷宫/魔王迷宫 Labyrinth.1986.2160p.BluRay.x265.10bit.HDR.TrueHD.7.1.Atmos-DEPTH 30.08GB

[复制链接]
蓝光币
1984
发表于 2017-12-21 20:38:56 | 显示全部楼层 |阅读模式
魔幻迷宫/魔王迷宫 Labyrinth.1986.2160p.BluRay.x265.10bit.HDR.TrueHD.7.1.Atmos-DEPTH 30.08GB-1.jpg
◎译  名 魔幻迷宫/魔王迷宫
◎片  名 Labyrinth
◎年  代 1986
◎产  地 美国/英国
◎类  别 冒险/家庭/奇异/歌舞
◎语  言 英语
◎上映日期 1986-06-27
◎IMDb评分  7.4/10 from 104,077 users
◎IMDb链接  http://www.imdb.com/title/tt0091369/
◎豆瓣评分 7.2/10 from 2,396 users
◎豆瓣链接 https://movie.douban.com/subject/1293117/
◎片  长 101 分钟
◎导  演 吉姆·亨森 Jim Henson
◎主  演 大卫·鲍伊 David Bowie
      詹妮弗·康纳利 Jennifer Connelly
      Shari Weiser
      布赖恩·汉森 Brian Henson
      弗兰克·奥兹 Frank Oz

◎简  介

  虽然萨拉(詹妮弗·康纳利 Jennifer Connelly 饰)自己就是个孩子,但她照旧得担当起照顾弟弟托比(托比·弗劳德 Toby Froud 饰)的义务,无法托比是个不听话的小孩,在他无停止的哭闹中,萨拉很快就损失了全数的耐心。
  萨拉所读的童话故事里有一个可以实现人们愿望的小妖精国王,萨拉负气地向他许愿,希望他可以带走烦人的弟弟,没想到愿望成真,小妖精国王贾斯(大卫·鲍伊 David Bowie 饰)出现在了萨拉的眼前并掠走了托比。贾斯告诉萨拉若想救回弟弟,萨拉必须在规按时候内穿越一座庞大而复杂的迷宫,若失利了,托比将永久呆在妖精的天下里再也回不了家。为了填补自己所犯下的错误,勇敢的萨拉决然踏上了冒险的旅途。


  1. Video
  2. ID                                       : 1
  3. Format                                   : HEVC
  4. Format/Info                              : High Efficiency Video Coding
  5. Format profile                           : Main [url=mailto:10@L5.1]10@L5.1[/url]@High
  6. Codec ID                                 : V_MPEGH/ISO/HEVC
  7. Duration                                 : 1 h 41 min
  8. Bit rate                                 : 36.2 Mb/s
  9. Width                                    : 3 840 pixels
  10. Height                                   : 1 606 pixels
  11. Display aspect ratio                     : 2.40:1
  12. Frame rate mode                          : Constant
  13. Frame rate                               : 23.976 (24000/1001) FPS
  14. Color space                              : YUV
  15. Chroma subsampling                       : 4:2:0 (Type 2)
  16. Bit depth                                : 10 bits
  17. Bits/(Pixel*Frame)                       : 0.245
  18. Stream size                              : 25.5GB (86%)
  19. Writing library                          : x265 2.5+58-06979c042350:[Windows][GCC 6.2.1][64 bit] 10bit
  20. Encoding settings                        : cpuid=1173503 / frame-threads=4 / numa-pools=20 / wpp / no-pmode / no-pme / no-psnr / no-ssim / log-level=2 / input-csp=1 / input-res=3840x1606 / interlace=0 / total-frames=145368 / level-idc=51 / high-tier=1 / uhd-bd=0 / ref=4 / no-allow-non-conformance / repeat-headers / annexb / aud / hrd / info / hash=0 / no-temporal-layers / no-open-gop / min-keyint=1 / keyint=24 / bframes=4 / b-adapt=2 / b-pyramid / bframe-bias=0 / rc-lookahead=25 / lookahead-slices=4 / scenecut=40 / no-intra-refresh / ctu=64 / min-cu-size=8 / rect / no-amp / max-tu-size=32 / tu-inter-depth=1 / tu-intra-depth=1 / limit-tu=0 / rdoq-level=2 / dynamic-rd=0.00 / no-ssim-rd / signhide / no-tskip / nr-intra=0 / nr-inter=0 / no-constrained-intra / no-strong-intra-smoothing / max-merge=3 / limit-refs=3 / limit-modes / me=3 / subme=3 / merange=57 / temporal-mvp / weightp / no-weightb / no-analyze-src-pics / deblock=-3:-3 / no-sao / no-sao-non-deblock / rd=4 / no-early-skip / rskip / no-fast-intra / no-tskip-fast / no-cu-lossless / no-b-intra / no-splitrd-skip / rdpenalty=0 / psy-rd=2.00 / psy-rdoq=1.00 / no-rd-refine / analysis-reuse-mode=0 / no-lossless / cbqpoffs=0 / crqpoffs=0 / rc=crf / crf=21.0 / qcomp=0.60 / qpstep=4 / stats-write=0 / stats-read=0 / vbv-maxrate=160000 / vbv-bufsize=160000 / vbv-init=0.9 / crf-max=0.0 / crf-min=0.0 / ipratio=1.40 / pbratio=1.30 / aq-mode=1 / aq-strength=1.00 / cutree / zone-count=0 / no-strict-cbr / qg-size=32 / no-rc-grain / qpmax=69 / qpmin=0 / no-const-vbv / sar=1 / overscan=0 / videoformat=5 / range=0 / colorprim=9 / transfer=16 / colormatrix=9 / chromaloc=1 / chromaloc-top=2 / chromaloc-bottom=2 / display-window=0 / master-display=G(13250,34500)B(7500,3000)R(34000,16000)WP(15635,16450)L(40000000,50) / max-cll=4390,1327 / min-luma=0 / max-luma=1023 / log2-max-poc-lsb=8 / vui-timing-info / vui-hrd-info / slices=1 / no-opt-qp-pps / no-opt-ref-list-length-pps / no-multi-pass-opt-rps / scenecut-bias=0.05 / no-opt-cu-delta-qp / no-aq-motion / hdr / hdr-opt / no-dhdr10-opt / analysis-reuse-level=5 / scale-factor=0 / refine-intra=0 / refine-inter=0 / refine-mv=0 / no-limit-sao / ctu-info=0 / no-lowpass-dct / refine-mv-type=0 / copy-pic=1
  21. Default                                  : Yes
  22. Forced                                   : No
  23. Color range                              : Limited
  24. Color primaries                          : BT.2020
  25. Transfer characteristics                 : PQ
  26. Matrix coefficients                      : BT.2020 non-constant
  27. Mastering display color primaries        : R: x=0.680000 y=0.320000, G: x=0.265000 y=0.690000, B: x=0.150000 y=0.060000, White point: x=0.312700 y=0.329000
  28. Mastering display luminance              : min: 0.0050 cd/m2, max: 4000.0000 cd/m2
  29. Maximum Content Light Level              : 4390 cd/m2
  30. Maximum Frame-Average Light Level        : 1327 cd/m2

  31. Audio #1
  32. ID                                       : 2
  33. Format                                   : TrueHD
  34. Format profile                           : TrueHD+Atmos / TrueHD
  35. Codec ID                                 : A_TRUEHD
  36. Duration                                 : 1 h 41 min
  37. Bit rate mode                            : Variable
  38. Bit rate                                 : 4 669 kb/s
  39. Maximum bit rate                         : 7 335 kb/s
  40. Channel(s)                               : Object Based / 8 channels
  41. Channel positions                        : Object Based / Front: L C R, Side: L R, Back: L R, LFE
  42. Sampling rate                            :  / 48.0 kHz
  43. Frame rate                               : 1 200.000 FPS (40 SPF)
  44. Compression mode                         : Lossless
  45. Stream size                              : 3.30GB (11%)
  46. Language                                 : English
  47. Default                                  : Yes
  48. Forced                                   : No

  49. Audio #2
  50. ID                                       : 3
  51. Format                                   : AC-3
  52. Format/Info                              : Audio Coding 3
  53. Codec ID                                 : A_AC3
  54. Duration                                 : 1 h 41 min
  55. Bit rate mode                            : Constant
  56. Bit rate                                 : 640 kb/s
  57. Channel(s)                               : 6 channels
  58. Channel positions                        : Front: L C R, Side: L R, LFE
  59. Sampling rate                            : 48.0 kHz
  60. Frame rate                               : 31.250 FPS (1536 SPF)
  61. Bit depth                                : 16 bits
  62. Compression mode                         : Lossy
  63. Stream size                              : 463 MiB (2%)
  64. Language                                 : English
  65. Service kind                             : Complete Main
  66. Default                                  : No
  67. Forced                                   : No

  68. Audio #3
  69. ID                                       : 4
  70. Format                                   : AC-3
  71. Format/Info                              : Audio Coding 3
  72. Codec ID                                 : A_AC3
  73. Duration                                 : 1 h 41 min
  74. Bit rate mode                            : Constant
  75. Bit rate                                 : 192 kb/s
  76. Channel(s)                               : 2 channels
  77. Channel positions                        : Front: L R
  78. Sampling rate                            : 48.0 kHz
  79. Frame rate                               : 31.250 FPS (1536 SPF)
  80. Bit depth                                : 16 bits
  81. Compression mode                         : Lossy
  82. Stream size                              : 139 MiB (0%)
  83. Title                                    : Commentary with conceptual designer Brian Froud
  84. Language                                 : English
  85. Service kind                             : Complete Main
  86. Default                                  : No
  87. Forced                                   : No

  88. Text #1
  89. ID                                       : 5
  90. Format                                   : PGS
  91. Muxing mode                              : zlib
  92. Codec ID                                 : S_HDMV/PGS
  93. Codec ID/Info                            : Picture based subtitle format used on BDs/HD-DVDs
  94. Duration                                 : 1 h 33 min
  95. Bit rate                                 : 26.2 kb/s
  96. Count of elements                        : 2118
  97. Stream size                              : 17.6 MiB (0%)
  98. Title                                    : American English
  99. Language                                 : English
  100. Default                                  : No
  101. Forced                                   : No

  102. Text #2
  103. ID                                       : 6
  104. Format                                   : PGS
  105. Muxing mode                              : zlib
  106. Codec ID                                 : S_HDMV/PGS
  107. Codec ID/Info                            : Picture based subtitle format used on BDs/HD-DVDs
  108. Duration                                 : 1 h 36 min
  109. Bit rate                                 : 30.5 kb/s
  110. Count of elements                        : 2659
  111. Stream size                              : 21.1 MiB (0%)
  112. Title                                    : American English SDH
  113. Language                                 : English
  114. Default                                  : No
  115. Forced                                   : No

  116. Text #3
  117. ID                                       : 7
  118. Format                                   : PGS
  119. Muxing mode                              : zlib
  120. Codec ID                                 : S_HDMV/PGS
  121. Codec ID/Info                            : Picture based subtitle format used on BDs/HD-DVDs
  122. Duration                                 : 1 h 33 min
  123. Bit rate                                 : 26.2 kb/s
  124. Count of elements                        : 2118
  125. Stream size                              : 17.6 MiB (0%)
  126. Title                                    : British English
  127. Language                                 : English
  128. Default                                  : No
  129. Forced                                   : No

  130. Text #4
  131. ID                                       : 8
  132. Format                                   : PGS
  133. Muxing mode                              : zlib
  134. Codec ID                                 : S_HDMV/PGS
  135. Codec ID/Info                            : Picture based subtitle format used on BDs/HD-DVDs
  136. Duration                                 : 1 h 36 min
  137. Bit rate                                 : 30.5 kb/s
  138. Count of elements                        : 2659
  139. Stream size                              : 21.1 MiB (0%)
  140. Title                                    : British English SDH
  141. Language                                 : English
  142. Default                                  : No
  143. Forced                                   : No

  144. Text #5
  145. ID                                       : 9
  146. Format                                   : PGS
  147. Muxing mode                              : zlib
  148. Codec ID                                 : S_HDMV/PGS
  149. Codec ID/Info                            : Picture based subtitle format used on BDs/HD-DVDs
  150. Duration                                 : 1 h 33 min
  151. Bit rate                                 : 21.8 kb/s
  152. Count of elements                        : 2072
  153. Stream size                              : 14.6 MiB (0%)
  154. Language                                 : Chinese
  155. Default                                  : No
  156. Forced                                   : No

  157. Text #6
  158. ID                                       : 10
  159. Format                                   : PGS
  160. Muxing mode                              : zlib
  161. Codec ID                                 : S_HDMV/PGS
  162. Codec ID/Info                            : Picture based subtitle format used on BDs/HD-DVDs
  163. Duration                                 : 1 h 33 min
  164. Bit rate                                 : 21.2 kb/s
  165. Count of elements                        : 2070
  166. Stream size                              : 14.2 MiB (0%)
  167. Language                                 : Czech
  168. Default                                  : No
  169. Forced                                   : No

  170. Text #7
  171. ID                                       : 11
  172. Format                                   : PGS
  173. Muxing mode                              : zlib
  174. Codec ID                                 : S_HDMV/PGS
  175. Codec ID/Info                            : Picture based subtitle format used on BDs/HD-DVDs
  176. Duration                                 : 1 h 33 min
  177. Bit rate                                 : 22.6 kb/s
  178. Count of elements                        : 1738
  179. Stream size                              : 15.2 MiB (0%)
  180. Language                                 : Danish
  181. Default                                  : No
  182. Forced                                   : No

  183. Text #8
  184. ID                                       : 12
  185. Format                                   : PGS
  186. Muxing mode                              : zlib
  187. Codec ID                                 : S_HDMV/PGS
  188. Codec ID/Info                            : Picture based subtitle format used on BDs/HD-DVDs
  189. Duration                                 : 1 h 33 min
  190. Bit rate                                 : 22.2 kb/s
  191. Count of elements                        : 1377
  192. Stream size                              : 14.8 MiB (0%)
  193. Language                                 : Dutch
  194. Default                                  : No
  195. Forced                                   : No

  196. Text #9
  197. ID                                       : 13
  198. Format                                   : PGS
  199. Muxing mode                              : zlib
  200. Codec ID                                 : S_HDMV/PGS
  201. Codec ID/Info                            : Picture based subtitle format used on BDs/HD-DVDs
  202. Duration                                 : 1 h 33 min
  203. Bit rate                                 : 22.2 kb/s
  204. Count of elements                        : 1691
  205. Stream size                              : 14.9 MiB (0%)
  206. Language                                 : Finnish
  207. Default                                  : No
  208. Forced                                   : No

  209. Text #10
  210. ID                                       : 14
  211. Format                                   : PGS
  212. Muxing mode                              : zlib
  213. Codec ID                                 : S_HDMV/PGS
  214. Codec ID/Info                            : Picture based subtitle format used on BDs/HD-DVDs
  215. Duration                                 : 1 h 38 min
  216. Bit rate                                 : 20.8 kb/s
  217. Count of elements                        : 1560
  218. Stream size                              : 14.6 MiB (0%)
  219. Language                                 : French
  220. Default                                  : No
  221. Forced                                   : No

  222. Text #11
  223. ID                                       : 15
  224. Format                                   : PGS
  225. Muxing mode                              : zlib
  226. Codec ID                                 : S_HDMV/PGS
  227. Codec ID/Info                            : Picture based subtitle format used on BDs/HD-DVDs
  228. Duration                                 : 1 h 33 min
  229. Bit rate                                 : 24.8 kb/s
  230. Count of elements                        : 1872
  231. Stream size                              : 16.6 MiB (0%)
  232. Language                                 : German
  233. Default                                  : No
  234. Forced                                   : No

  235. Text #12
  236. ID                                       : 16
  237. Format                                   : PGS
  238. Muxing mode                              : zlib
  239. Codec ID                                 : S_HDMV/PGS
  240. Codec ID/Info                            : Picture based subtitle format used on BDs/HD-DVDs
  241. Duration                                 : 1 h 33 min
  242. Bit rate                                 : 26.4 kb/s
  243. Count of elements                        : 2112
  244. Stream size                              : 17.7 MiB (0%)
  245. Language                                 : Italian
  246. Default                                  : No
  247. Forced                                   : No

  248. Text #13
  249. ID                                       : 17
  250. Format                                   : PGS
  251. Muxing mode                              : zlib
  252. Codec ID                                 : S_HDMV/PGS
  253. Codec ID/Info                            : Picture based subtitle format used on BDs/HD-DVDs
  254. Duration                                 : 1 h 37 min
  255. Bit rate                                 : 22.3 kb/s
  256. Count of elements                        : 2281
  257. Stream size                              : 15.5 MiB (0%)
  258. Language                                 : Japanese
  259. Default                                  : No
  260. Forced                                   : No

  261. Text #14
  262. ID                                       : 18
  263. Format                                   : PGS
  264. Muxing mode                              : zlib
  265. Codec ID                                 : S_HDMV/PGS
  266. Codec ID/Info                            : Picture based subtitle format used on BDs/HD-DVDs
  267. Duration                                 : 1 h 39 min
  268. Bit rate                                 : 20.3 kb/s
  269. Count of elements                        : 2076
  270. Stream size                              : 14.5 MiB (0%)
  271. Language                                 : Korean
  272. Default                                  : No
  273. Forced                                   : No

  274. Text #15
  275. ID                                       : 19
  276. Format                                   : PGS
  277. Muxing mode                              : zlib
  278. Codec ID                                 : S_HDMV/PGS
  279. Codec ID/Info                            : Picture based subtitle format used on BDs/HD-DVDs
  280. Duration                                 : 1 h 33 min
  281. Bit rate                                 : 21.7 kb/s
  282. Count of elements                        : 2068
  283. Stream size                              : 14.6 MiB (0%)
  284. Language                                 : Norwegian
  285. Default                                  : No
  286. Forced                                   : No

  287. Text #16
  288. ID                                       : 20
  289. Format                                   : PGS
  290. Muxing mode                              : zlib
  291. Codec ID                                 : S_HDMV/PGS
  292. Codec ID/Info                            : Picture based subtitle format used on BDs/HD-DVDs
  293. Duration                                 : 1 h 33 min
  294. Bit rate                                 : 22.8 kb/s
  295. Count of elements                        : 2070
  296. Stream size                              : 15.3 MiB (0%)
  297. Language                                 : Polish
  298. Default                                  : No
  299. Forced                                   : No

  300. Text #17
  301. ID                                       : 21
  302. Format                                   : PGS
  303. Muxing mode                              : zlib
  304. Codec ID                                 : S_HDMV/PGS
  305. Codec ID/Info                            : Picture based subtitle format used on BDs/HD-DVDs
  306. Duration                                 : 1 h 39 min
  307. Bit rate                                 : 23.2 kb/s
  308. Count of elements                        : 2066
  309. Stream size                              : 16.5 MiB (0%)
  310. Language                                 : Portuguese
  311. Default                                  : No
  312. Forced                                   : No

  313. Text #18
  314. ID                                       : 22
  315. Format                                   : PGS
  316. Muxing mode                              : zlib
  317. Codec ID                                 : S_HDMV/PGS
  318. Codec ID/Info                            : Picture based subtitle format used on BDs/HD-DVDs
  319. Duration                                 : 1 h 33 min
  320. Bit rate                                 : 24.3 kb/s
  321. Count of elements                        : 2070
  322. Stream size                              : 16.3 MiB (0%)
  323. Language                                 : Greek
  324. Default                                  : No
  325. Forced                                   : No

  326. Text #19
  327. ID                                       : 23
  328. Format                                   : PGS
  329. Muxing mode                              : zlib
  330. Codec ID                                 : S_HDMV/PGS
  331. Codec ID/Info                            : Picture based subtitle format used on BDs/HD-DVDs
  332. Duration                                 : 1 h 39 min
  333. Bit rate                                 : 29.8 kb/s
  334. Count of elements                        : 2458
  335. Stream size                              : 21.3 MiB (0%)
  336. Language                                 : Spanish
  337. Default                                  : No
  338. Forced                                   : No

  339. Text #20
  340. ID                                       : 24
  341. Format                                   : PGS
  342. Muxing mode                              : zlib
  343. Codec ID                                 : S_HDMV/PGS
  344. Codec ID/Info                            : Picture based subtitle format used on BDs/HD-DVDs
  345. Duration                                 : 1 h 33 min
  346. Bit rate                                 : 21.4 kb/s
  347. Count of elements                        : 2068
  348. Stream size                              : 14.3 MiB (0%)
  349. Language                                 : Swedish
  350. Default                                  : No
  351. Forced                                   : No

  352. Text #21
  353. ID                                       : 25
  354. Format                                   : PGS
  355. Muxing mode                              : zlib
  356. Codec ID                                 : S_HDMV/PGS
  357. Codec ID/Info                            : Picture based subtitle format used on BDs/HD-DVDs
  358. Duration                                 : 1 h 33 min
  359. Bit rate                                 : 25.5 kb/s
  360. Count of elements                        : 2070
  361. Stream size                              : 17.1 MiB (0%)
  362. Language                                 : Turkish
  363. Default                                  : No
  364. Forced                                   : No

  365. Text #22
  366. ID                                       : 26
  367. Format                                   : PGS
  368. Muxing mode                              : zlib
  369. Codec ID                                 : S_HDMV/PGS
  370. Codec ID/Info                            : Picture based subtitle format used on BDs/HD-DVDs
  371. Duration                                 : 1 h 36 min
  372. Bit rate                                 : 45.7 kb/s
  373. Count of elements                        : 2628
  374. Stream size                              : 31.5 MiB (0%)
  375. Title                                    : Commentary
  376. Language                                 : English
  377. Default                                  : No
  378. Forced                                   : No

  379. Text #23
  380. ID                                       : 27
  381. Format                                   : PGS
  382. Muxing mode                              : zlib
  383. Codec ID                                 : S_HDMV/PGS
  384. Codec ID/Info                            : Picture based subtitle format used on BDs/HD-DVDs
  385. Duration                                 : 1 h 36 min
  386. Bit rate                                 : 53.2 kb/s
  387. Count of elements                        : 3151
  388. Stream size                              : 36.7 MiB (0%)
  389. Title                                    : Commentary
  390. Language                                 : English
  391. Default                                  : No
  392. Forced                                   : No

  393. Text #24
  394. ID                                       : 28
  395. Format                                   : PGS
  396. Muxing mode                              : zlib
  397. Codec ID                                 : S_HDMV/PGS
  398. Codec ID/Info                            : Picture based subtitle format used on BDs/HD-DVDs
  399. Duration                                 : 1 h 36 min
  400. Bit rate                                 : 44.1 kb/s
  401. Count of elements                        : 2726
  402. Stream size                              : 30.4 MiB (0%)
  403. Title                                    : Commentary
  404. Language                                 : Dutch
  405. Default                                  : No
  406. Forced                                   : No

  407. Text #25
  408. ID                                       : 29
  409. Format                                   : PGS
  410. Muxing mode                              : zlib
  411. Codec ID                                 : S_HDMV/PGS
  412. Codec ID/Info                            : Picture based subtitle format used on BDs/HD-DVDs
  413. Duration                                 : 1 h 36 min
  414. Bit rate                                 : 47.0 kb/s
  415. Count of elements                        : 2856
  416. Stream size                              : 32.4 MiB (0%)
  417. Title                                    : Commentary
  418. Language                                 : French
  419. Default                                  : No
  420. Forced                                   : No

  421. Text #26
  422. ID                                       : 30
  423. Format                                   : PGS
  424. Muxing mode                              : zlib
  425. Codec ID                                 : S_HDMV/PGS
  426. Codec ID/Info                            : Picture based subtitle format used on BDs/HD-DVDs
  427. Duration                                 : 1 h 36 min
  428. Bit rate                                 : 51.2 kb/s
  429. Count of elements                        : 3000
  430. Stream size                              : 35.3 MiB (0%)
  431. Title                                    : Commentary
  432. Language                                 : German
  433. Default                                  : No
  434. Forced                                   : No

  435. Text #27
  436. ID                                       : 31
  437. Format                                   : PGS
  438. Muxing mode                              : zlib
  439. Codec ID                                 : S_HDMV/PGS
  440. Codec ID/Info                            : Picture based subtitle format used on BDs/HD-DVDs
  441. Duration                                 : 1 h 36 min
  442. Bit rate                                 : 48.0 kb/s
  443. Count of elements                        : 2936
  444. Stream size                              : 33.1 MiB (0%)
  445. Title                                    : Commentary
  446. Language                                 : Italian
  447. Default                                  : No
  448. Forced                                   : No

  449. Text #28
  450. ID                                       : 32
  451. Format                                   : PGS
  452. Muxing mode                              : zlib
  453. Codec ID                                 : S_HDMV/PGS
  454. Codec ID/Info                            : Picture based subtitle format used on BDs/HD-DVDs
  455. Duration                                 : 1 h 40 min
  456. Bit rate                                 : 33.4 kb/s
  457. Count of elements                        : 2938
  458. Stream size                              : 24.0 MiB (0%)
  459. Title                                    : Commentary
  460. Language                                 : Korean
  461. Default                                  : No
  462. Forced                                   : No

  463. Text #29
  464. ID                                       : 33
  465. Format                                   : PGS
  466. Muxing mode                              : zlib
  467. Codec ID                                 : S_HDMV/PGS
  468. Codec ID/Info                            : Picture based subtitle format used on BDs/HD-DVDs
  469. Duration                                 : 1 h 40 min
  470. Bit rate                                 : 43.9 kb/s
  471. Count of elements                        : 2928
  472. Stream size                              : 31.5 MiB (0%)
  473. Title                                    : Commentary
  474. Language                                 : Portuguese
  475. Default                                  : No
  476. Forced                                   : No

  477. Text #30
  478. ID                                       : 34
  479. Format                                   : PGS
  480. Muxing mode                              : zlib
  481. Codec ID                                 : S_HDMV/PGS
  482. Codec ID/Info                            : Picture based subtitle format used on BDs/HD-DVDs
  483. Duration                                 : 1 h 36 min
  484. Bit rate                                 : 48.9 kb/s
  485. Count of elements                        : 2858
  486. Stream size                              : 33.7 MiB (0%)
  487. Title                                    : Commentary
  488. Language                                 : Spanish
  489. Default                                  : No
  490. Forced                                   : No

  491. Text #31
  492. ID                                       : 35
  493. Format                                   : PGS
  494. Muxing mode                              : zlib
  495. Codec ID                                 : S_HDMV/PGS
  496. Codec ID/Info                            : Picture based subtitle format used on BDs/HD-DVDs
  497. Duration                                 : 1 h 33 min
  498. Bit rate                                 : 23.1 kb/s
  499. Count of elements                        : 1490
  500. Stream size                              : 15.4 MiB (0%)
  501. Title                                    : Commentary
  502. Language                                 : Spanish
  503. Default                                  : No
  504. Forced                                   : No

  505. Menu
  506. 00:00:00.000                             : en:00:00:00.000
  507. 00:04:09.207                             : en:00:04:09.207
  508. 00:11:44.537                             : en:00:11:44.537
  509. 00:16:57.975                             : en:00:16:57.975
  510. 00:22:20.756                             : en:00:22:20.756
  511. 00:28:53.523                             : en:00:28:53.523
  512. 00:33:11.656                             : en:00:33:11.656
  513. 00:38:52.997                             : en:00:38:52.997
  514. 00:45:05.661                             : en:00:45:05.661
  515. 00:50:48.379                             : en:00:50:48.379
  516. 00:57:20.020                             : en:00:57:20.020
  517. 01:03:25.468                             : en:01:03:25.468
  518. 01:09:57.860                             : en:01:09:57.860
  519. 01:15:50.129                             : en:01:15:50.129
  520. 01:24:05.999                             : en:01:24:05.999
  521. 01:30:47.567                             : en:01:30:47.567



复制代码
复制代码
魔幻迷宫/魔王迷宫 Labyrinth.1986.2160p.BluRay.x265.10bit.HDR.TrueHD.7.1.Atmos-DEPTH 30.08GB-2.png 魔幻迷宫/魔王迷宫 Labyrinth.1986.2160p.BluRay.x265.10bit.HDR.TrueHD.7.1.Atmos-DEPTH 30.08GB-3.png 魔幻迷宫/魔王迷宫 Labyrinth.1986.2160p.BluRay.x265.10bit.HDR.TrueHD.7.1.Atmos-DEPTH 30.08GB-4.png 魔幻迷宫/魔王迷宫 Labyrinth.1986.2160p.BluRay.x265.10bit.HDR.TrueHD.7.1.Atmos-DEPTH 30.08GB-5.png 魔幻迷宫/魔王迷宫 Labyrinth.1986.2160p.BluRay.x265.10bit.HDR.TrueHD.7.1.Atmos-DEPTH 30.08GB-6.png 魔幻迷宫/魔王迷宫 Labyrinth.1986.2160p.BluRay.x265.10bit.HDR.TrueHD.7.1.Atmos-DEPTH 30.08GB-7.png





回复

使用道具 举报

懒得打字嘛,点击右侧快捷回复 【右侧内容,后台自定义】
您需要登录后才可以回帖 登录 | 立即加入

本版积分规则

Archiver| |网站地图

Copyright © 2024 Comsenz Inc. Powered by 蓝光电影网

本站内容由用户自主分享和转载自互联网,转载目的在于传递更多信息,并不代表本网赞同其观点和对其真实性负责。

如有侵权、违反国家法律政策行为,请联系我们,我们会第一时间及时清除和处理!

举报反馈邮箱:4k1080.com@gmail.com

快速回复 返回顶部 返回列表