找回密码

查看: 2668|回复: 0

奋斗的乔伊/翻转幸福 Joy.2015.2160p.BluRay.x265.10bit.SDR.DTS-HD.MA.5.1-SWTYBLZ 33.13GB

[复制链接]
蓝光币
1971
发表于 2017-12-21 20:42:15 | 显示全部楼层 |阅读模式
奋斗的乔伊/翻转幸运 Joy.2015.2160p.BluRay.x265.10bit.SDR.DTS-HD.MA.5.1-SWTYBLZ 33.13GB-1.jpg
◎译  名 奋斗的乔伊/翻转幸运/欢姐当自强/乔伊的发现/乔伊/拖把女王/发现妇女/乔伊的奋斗
◎片  名 Joy
◎年  代 2015
◎产  地 美国
◎类  别 剧情/笑剧/列传
◎语  言 英语/西班牙语
◎上映日期 2015-12-25(美国)
◎IMDb评分  6.6/10 from 104,727 users
◎IMDb链接  http://www.imdb.com/title/tt2446980/
◎豆瓣评分 6.6/10 from 14,926 users
◎豆瓣链接 https://movie.douban.com/subject/25901741/
◎片  长 124分钟
◎导  演 大卫·欧·拉塞尔 David O. Russell
◎主  演 詹妮弗·劳伦斯 Jennifer Lawrence
      罗伯特·德尼罗 Robert De Niro
      埃德加·拉米雷兹 édgar Ramírez
      布莱德利·库珀 Bradley Cooper
      戴安·拉德 Diane Ladd
      维吉妮娅·马德森 Virginia Madsen
      伊莎贝拉·罗西里尼 Isabella Rossellini
      达丝莎·坡兰科 Dascha Polanco
      伊丽莎白·霍尔姆 Elisabeth R?hm
      苏珊·卢琪 Susan Lucci
      劳拉·怀特 Laura Wright
      莫里斯·贝纳德 Maurice Benard
      唐娜·米尔斯 Donna Mills
      吉米·让-刘易斯 Jimmy Jean-Louis
      约翰·伊诺斯III John Enos III
      埃里卡·麦克德莫特 Erica McDermott

◎简  介

  电影《拖把女王》报告上世纪八十年月一位居住在长岛的单身母亲Joy经过本身尽力,销售奇异拖把发家致富,终极成为一代拖把女王的故事。
  电影《拖把女王》将是詹妮弗·劳伦斯和布拉德利·库珀在银幕上的四度合作,老戏骨罗伯特·德尼罗也将加盟,电影已于克日在波士顿开拍,由大卫·O·拉塞尔执导,已定于圣诞节当日在北美公映。

◎获奖情况

  第88届奥斯卡金像奖  (2016)
  最好女配角(提名) 詹妮弗·劳伦斯

  第73届金球奖  (2016)
  电影类 最好音乐/笑剧片(提名)
  电影类 音乐/笑剧片最好女配角 詹妮弗·劳伦斯

  第66届美国剪辑工会奖  (2016)
  音乐/笑剧片最好剪辑(提名)

  第18届美国打扮设想工会奖  (2016)
  现代题材电影最好打扮设想(提名)

  第21届美国批评家挑选电影奖  (2016)
  最好女配角(提名) 詹妮弗·劳伦斯
  最好笑剧片(提名)
  笑剧片最好女配角(提名) 詹妮弗·劳伦斯



  1. Video
  2. ID                                       : 1
  3. Format                                   : HEVC
  4. Format/Info                              : High Efficiency Video Coding
  5. Format profile                           : Main [url=mailto:10@L5.1]10@L5.1[/url]@High
  6. Codec ID                                 : V_MPEGH/ISO/HEVC
  7. Duration                                 : 2 h 4 min
  8. Bit rate                                 : 33.9 Mb/s
  9. Width                                    : 3 840 pixels
  10. Height                                   : 2 076 pixels
  11. Display aspect ratio                     : 1.85:1
  12. Frame rate mode                          : Constant
  13. Frame rate                               : 23.976 (24000/1001) FPS
  14. Color space                              : YUV
  15. Chroma subsampling                       : 4:2:0
  16. Bit depth                                : 10 bits
  17. Bits/(Pixel*Frame)                       : 0.177
  18. Stream size                              : 29.4GB (89%)
  19. Title                                    : Joy.2015.2160p.BluRay.x265.10bit.SDR.DTS-HD.MA.5.1-SWTYBLZ
  20. Writing library                          : x265 2.5+4-b4a5bcfe29c7:[Windows][GCC 4.9.3][64 bit] 10bit
  21. Encoding settings                        : cpuid=1173503 / frame-threads=16 / numa-pools=24,24,24,24 / wpp / no-pmode / no-pme / no-psnr / no-ssim / log-level=2 / input-csp=1 / input-res=3840x2076 / interlace=0 / total-frames=0 / level-idc=51 / high-tier=1 / uhd-bd=0 / ref=3 / no-allow-non-conformance / repeat-headers / annexb / aud / hrd / info / hash=0 / no-temporal-layers / no-open-gop / min-keyint=1 / keyint=24 / bframes=4 / b-adapt=2 / b-pyramid / bframe-bias=0 / rc-lookahead=25 / lookahead-slices=4 / scenecut=40 / no-intra-refresh / ctu=64 / min-cu-size=8 / no-rect / no-amp / max-tu-size=32 / tu-inter-depth=1 / tu-intra-depth=1 / limit-tu=0 / rdoq-level=0 / dynamic-rd=0.00 / no-ssim-rd / signhide / no-tskip / nr-intra=0 / nr-inter=0 / no-constrained-intra / strong-intra-smoothing / max-merge=2 / limit-refs=3 / no-limit-modes / me=1 / subme=2 / merange=57 / temporal-mvp / weightp / no-weightb / no-analyze-src-pics / deblock=0:0 / no-sao / no-sao-non-deblock / rd=3 / no-early-skip / rskip / no-fast-intra / no-tskip-fast / no-cu-lossless / no-b-intra / rdpenalty=0 / psy-rd=2.00 / psy-rdoq=0.00 / no-rd-refine / analysis-reuse-mode=0 / no-lossless / cbqpoffs=0 / crqpoffs=0 / rc=crf / crf=18.0 / qcomp=0.60 / qpstep=4 / stats-write=0 / stats-read=0 / vbv-maxrate=160000 / vbv-bufsize=160000 / vbv-init=0.9 / crf-max=0.0 / crf-min=0.0 / ipratio=1.40 / pbratio=1.30 / aq-mode=1 / aq-strength=1.00 / cutree / zone-count=0 / no-strict-cbr / qg-size=32 / no-rc-grain / qpmax=69 / qpmin=0 / no-const-vbv / sar=1 / overscan=0 / videoformat=5 / range=0 / colorprim=2 / transfer=2 / colormatrix=2 / chromaloc=0 / display-window=0 / max-cll=0,0 / min-luma=0 / max-luma=1023 / log2-max-poc-lsb=8 / vui-timing-info / vui-hrd-info / slices=1 / opt-qp-pps / opt-ref-list-length-pps / no-multi-pass-opt-rps / scenecut-bias=0.05 / no-opt-cu-delta-qp / no-aq-motion / no-hdr / no-hdr-opt / no-dhdr10-opt / analysis-reuse-level=5 / scale-factor=0 / refine-intra=0 / refine-inter=0 / refine-mv=0 / no-limit-sao / ctu-info=0
  22. Language                                 : English
  23. Default                                  : Yes
  24. Forced                                   : No

  25. Audio #1
  26. ID                                       : 2
  27. Format                                   : DTS
  28. Format/Info                              : Digital Theater Systems
  29. Format profile                           : MA / Core
  30. Codec ID                                 : A_DTS
  31. Duration                                 : 2 h 4 min
  32. Bit rate mode                            : Variable / Constant
  33. Bit rate                                 : 3 250 kb/s / 1 509 kb/s
  34. Channel(s)                               : 6 channels
  35. Channel positions                        : Front: L C R, Side: L R, LFE
  36. Sampling rate                            : 48.0 kHz
  37. Frame rate                               : 93.750 FPS (512 SPF)
  38. Bit depth                                : 24 bits
  39. Compression mode                         : Lossless / Lossy
  40. Delay relative to video                  : 7 ms
  41. Stream size                              : 2.82GB (9%)
  42. Title                                    : Joy.2015.2160p.BluRay.x265.10bit.SDR.DTS-HD.MA.5.1-SWTYBLZ
  43. Language                                 : English
  44. Default                                  : Yes
  45. Forced                                   : No

  46. Audio #2
  47. ID                                       : 3
  48. Format                                   : AC-3
  49. Format/Info                              : Audio Coding 3
  50. Codec ID                                 : A_AC3
  51. Duration                                 : 2 h 4 min
  52. Bit rate mode                            : Constant
  53. Bit rate                                 : 640 kb/s
  54. Channel(s)                               : 6 channels
  55. Channel positions                        : Front: L C R, Side: L R, LFE
  56. Sampling rate                            : 48.0 kHz
  57. Frame rate                               : 31.250 FPS (1536 SPF)
  58. Bit depth                                : 16 bits
  59. Compression mode                         : Lossy
  60. Stream size                              : 568 MiB (2%)
  61. Title                                    : Joy.2015.2160p.BluRay.x265.10bit.SDR.DTS-HD.MA.5.1-SWTYBLZ
  62. Language                                 : English
  63. Service kind                             : Complete Main
  64. Default                                  : No
  65. Forced                                   : No

  66. Text #1
  67. ID                                       : 4
  68. Format                                   : UTF-8
  69. Codec ID                                 : S_TEXT/UTF8
  70. Codec ID/Info                            : UTF-8 Plain Text
  71. Duration                                 : 1 h 55 min
  72. Bit rate                                 : 85 b/s
  73. Count of elements                        : 2005
  74. Stream size                              : 72.2 KiB (0%)
  75. Title                                    : English-SRT
  76. Language                                 : English
  77. Default                                  : Yes
  78. Forced                                   : No

  79. Text #2
  80. ID                                       : 5
  81. Format                                   : PGS
  82. Muxing mode                              : zlib
  83. Codec ID                                 : S_HDMV/PGS
  84. Codec ID/Info                            : Picture based subtitle format used on BDs/HD-DVDs
  85. Duration                                 : 1 h 57 min
  86. Bit rate                                 : 62.3 kb/s
  87. Count of elements                        : 5192
  88. Stream size                              : 52.3 MiB (0%)
  89. Title                                    : English-PGS
  90. Language                                 : English
  91. Default                                  : No
  92. Forced                                   : No

  93. Text #3
  94. ID                                       : 6
  95. Format                                   : PGS
  96. Muxing mode                              : zlib
  97. Codec ID                                 : S_HDMV/PGS
  98. Codec ID/Info                            : Picture based subtitle format used on BDs/HD-DVDs
  99. Duration                                 : 2 h 3 min
  100. Bit rate                                 : 44.8 kb/s
  101. Count of elements                        : 3698
  102. Stream size                              : 39.4 MiB (0%)
  103. Title                                    : Spanish-PGS
  104. Language                                 : Spanish
  105. Default                                  : No
  106. Forced                                   : No

  107. Text #4
  108. ID                                       : 7
  109. Format                                   : PGS
  110. Muxing mode                              : zlib
  111. Codec ID                                 : S_HDMV/PGS
  112. Codec ID/Info                            : Picture based subtitle format used on BDs/HD-DVDs
  113. Duration                                 : 2 h 3 min
  114. Bit rate                                 : 36.2 kb/s
  115. Count of elements                        : 3558
  116. Stream size                              : 31.9 MiB (0%)
  117. Title                                    : Frecnch-PGS
  118. Language                                 : French
  119. Default                                  : No
  120. Forced                                   : No

  121. Text #5
  122. ID                                       : 8
  123. Format                                   : PGS
  124. Muxing mode                              : zlib
  125. Codec ID                                 : S_HDMV/PGS
  126. Codec ID/Info                            : Picture based subtitle format used on BDs/HD-DVDs
  127. Duration                                 : 2 h 3 min
  128. Bit rate                                 : 43.0 kb/s
  129. Count of elements                        : 3014
  130. Stream size                              : 37.9 MiB (0%)
  131. Title                                    : Danish-PGS
  132. Language                                 : Danish
  133. Default                                  : No
  134. Forced                                   : No

  135. Text #6
  136. ID                                       : 9
  137. Format                                   : PGS
  138. Muxing mode                              : zlib
  139. Codec ID                                 : S_HDMV/PGS
  140. Codec ID/Info                            : Picture based subtitle format used on BDs/HD-DVDs
  141. Duration                                 : 2 h 3 min
  142. Bit rate                                 : 38.9 kb/s
  143. Count of elements                        : 3244
  144. Stream size                              : 34.2 MiB (0%)
  145. Title                                    : Dutch-PGS
  146. Language                                 : Dutch
  147. Default                                  : No
  148. Forced                                   : No

  149. Text #7
  150. ID                                       : 10
  151. Format                                   : PGS
  152. Muxing mode                              : zlib
  153. Codec ID                                 : S_HDMV/PGS
  154. Codec ID/Info                            : Picture based subtitle format used on BDs/HD-DVDs
  155. Duration                                 : 2 h 3 min
  156. Bit rate                                 : 39.3 kb/s
  157. Count of elements                        : 3924
  158. Stream size                              : 34.6 MiB (0%)
  159. Title                                    : Finnish-PGS
  160. Language                                 : Finnish
  161. Default                                  : No
  162. Forced                                   : No

  163. Text #8
  164. ID                                       : 11
  165. Format                                   : PGS
  166. Muxing mode                              : zlib
  167. Codec ID                                 : S_HDMV/PGS
  168. Codec ID/Info                            : Picture based subtitle format used on BDs/HD-DVDs
  169. Duration                                 : 2 h 3 min
  170. Bit rate                                 : 48.5 kb/s
  171. Count of elements                        : 3806
  172. Stream size                              : 42.7 MiB (0%)
  173. Title                                    : German-PGS
  174. Language                                 : German
  175. Default                                  : No
  176. Forced                                   : No

  177. Text #9
  178. ID                                       : 12
  179. Format                                   : PGS
  180. Muxing mode                              : zlib
  181. Codec ID                                 : S_HDMV/PGS
  182. Codec ID/Info                            : Picture based subtitle format used on BDs/HD-DVDs
  183. Duration                                 : 2 h 3 min
  184. Bit rate                                 : 44.6 kb/s
  185. Count of elements                        : 4028
  186. Stream size                              : 39.3 MiB (0%)
  187. Title                                    : Italian-PGS
  188. Language                                 : Italian
  189. Default                                  : No
  190. Forced                                   : No

  191. Text #10
  192. ID                                       : 13
  193. Format                                   : PGS
  194. Muxing mode                              : zlib
  195. Codec ID                                 : S_HDMV/PGS
  196. Codec ID/Info                            : Picture based subtitle format used on BDs/HD-DVDs
  197. Duration                                 : 2 h 3 min
  198. Bit rate                                 : 46.2 kb/s
  199. Count of elements                        : 3996
  200. Stream size                              : 40.7 MiB (0%)
  201. Title                                    : Norwegian-PGS
  202. Language                                 : Norwegian
  203. Default                                  : No
  204. Forced                                   : No

  205. Text #11
  206. ID                                       : 14
  207. Format                                   : PGS
  208. Muxing mode                              : zlib
  209. Codec ID                                 : S_HDMV/PGS
  210. Codec ID/Info                            : Picture based subtitle format used on BDs/HD-DVDs
  211. Duration                                 : 2 h 3 min
  212. Bit rate                                 : 37.6 kb/s
  213. Count of elements                        : 3988
  214. Stream size                              : 33.1 MiB (0%)
  215. Title                                    : Swedish-PGS
  216. Language                                 : Swedish
  217. Default                                  : No
  218. Forced                                   : No

  219. Menu
  220. 00:00:00.000                             : en:Chapter 1
  221. 00:06:14.082                             : en:Chapter 2
  222. 00:09:54.093                             : en:Chapter 3
  223. 00:13:43.030                             : en:Chapter 4
  224. 00:19:26.748                             : en:Chapter 5
  225. 00:22:54.831                             : en:Chapter 6
  226. 00:28:09.312                             : en:Chapter 7
  227. 00:32:45.672                             : en:Chapter 8
  228. 00:36:53.628                             : en:Chapter 9
  229. 00:44:02.806                             : en:Chapter 10
  230. 00:48:17.019                             : en:Chapter 11
  231. 00:53:25.827                             : en:Chapter 12
  232. 00:56:57.914                             : en:Chapter 13
  233. 01:01:13.127                             : en:Chapter 14
  234. 01:06:48.671                             : en:Chapter 15
  235. 01:12:52.493                             : en:Chapter 16
  236. 01:16:56.445                             : en:Chapter 17
  237. 01:20:53.765                             : en:Chapter 18
  238. 01:26:14.210                             : en:Chapter 19
  239. 01:30:24.836                             : en:Chapter 20
  240. 01:35:51.078                             : en:Chapter 21
  241. 01:41:28.707                             : en:Chapter 22
  242. 01:47:24.354                             : en:Chapter 23
  243. 01:53:58.623                             : en:Chapter 24

复制代码
复制代码
奋斗的乔伊/翻转幸运 Joy.2015.2160p.BluRay.x265.10bit.SDR.DTS-HD.MA.5.1-SWTYBLZ 33.13GB-2.png 奋斗的乔伊/翻转幸运 Joy.2015.2160p.BluRay.x265.10bit.SDR.DTS-HD.MA.5.1-SWTYBLZ 33.13GB-3.png 奋斗的乔伊/翻转幸运 Joy.2015.2160p.BluRay.x265.10bit.SDR.DTS-HD.MA.5.1-SWTYBLZ 33.13GB-4.png 奋斗的乔伊/翻转幸运 Joy.2015.2160p.BluRay.x265.10bit.SDR.DTS-HD.MA.5.1-SWTYBLZ 33.13GB-5.png 奋斗的乔伊/翻转幸运 Joy.2015.2160p.BluRay.x265.10bit.SDR.DTS-HD.MA.5.1-SWTYBLZ 33.13GB-6.png






回复

使用道具 举报

懒得打字嘛,点击右侧快捷回复 【右侧内容,后台自定义】
您需要登录后才可以回帖 登录 | 立即加入

本版积分规则

Archiver| |网站地图

Copyright © 2024 Comsenz Inc. Powered by 蓝光电影网

本站内容由用户自主分享和转载自互联网,转载目的在于传递更多信息,并不代表本网赞同其观点和对其真实性负责。

如有侵权、违反国家法律政策行为,请联系我们,我们会第一时间及时清除和处理!

举报反馈邮箱:4k1080.com@gmail.com

快速回复 返回顶部 返回列表