找回密码

查看: 2751|回复: 1

[动作] 安德的游戏/宇宙生还战:安达的战争游戏 Enders.Game.2013.1080p.BluRay.x264.TrueHD.7.1.Atmos-SWTYBLZ 13.63GB

[复制链接]
蓝光币
1971
发表于 2017-12-21 21:08:18 | 显示全部楼层 |阅读模式
131806x3tnlzzg0hudebu1.jpg
◎译  名 安德的游戏/宇宙生还战:安达的战争游戏/战争游戏
◎片  名 Ender's Game
◎年  代 2013
◎产  地 美国
◎类  别 行动/科幻/冒险
◎语  言 英语
◎上映日期 2013-10-24(德国)/2013-11-01(美国)/2014-01-07(中国大陆)
◎IMDb评分  6.7/10 from 199,436 users
◎IMDb链接  http://www.imdb.com/title/tt1731141/
◎豆瓣评分 6.9/10 from 101,647 users
◎豆瓣链接 https://movie.douban.com/subject/5323957/
◎片  长 114分钟
◎导  演 加文·胡德 Gavin Hood
◎主  演 阿沙·巴特菲尔德 Asa Butterfield
      哈里森·福特 Harrison Ford
      海莉·斯坦菲尔德 Hailee Steinfeld
      阿比盖尔·布蕾斯琳 Abigail Breslin
      本·金斯利 Ben Kingsley
      维奥拉·戴维斯 Viola Davis
      阿拉米斯·奈特 Aramis Knight
      莫伊塞斯·阿里亚斯 Moises Arias
      吉米·贾克斯·平查克 Jimmy 'Jax' Pinchak
      侬索·阿诺斯 Nonso Anozie
      康纳·卡罗尔 Conor Carroll

◎简  介

  并不悠远的未来,来自外星系的异星蜓入侵地球,形成跨越一万万人灭亡。危难时辰,勇敢的队长瑞克汉姆阻挡了侵犯者扩大的步伐。操纵这有限贵重的时候,地球人努力寻觅具有极高天赋的少年加以练习培育,以期他们可以成为挫败外星入侵者的魁首人物。体态瘦小、神采郁闷但眼光非常果断的安德·维京(阿沙·巴特菲尔德 Asa Butterfield 饰)正是这群少年中的一员,他也是国际舰队寄与厚望并重点培育的工具。经过数轮严苛的考评,安德的潜质获得战役黉舍的批示官格拉夫上校(哈里森·福特 Harrison Ford 饰)的必定,他被上校带到了位于轨道空间站上的战役黉舍,在全封锁的情况下,未来的豪杰迎来新一轮的考验……
  本片按照美国科幻小说作家奥森·斯科特·卡德(Orson Scott Card)的原作改编。

◎获奖情况

  第19届美国批评家挑选电影奖  (2014)
  最好青年演员(提名) 阿萨·巴特菲尔德

  第12届华盛顿影评人协会奖  (2013)
  最好青少年表演(提名) 阿萨·巴特菲尔德

  第13届凤凰城影评人协会奖  (2013)
  最好青年男演员(提名) 阿萨·巴特菲尔德

  第1届豆瓣电影年度榜单  (2014)
  1月最受关注电影(提名)


  1. Video
  2. ID                                       : 1
  3. Format                                   : AVC
  4. Format/Info                              : Advanced Video Codec
  5. Format profile                           : [email]High@L4.1[/email]
  6. Format settings                          : CABAC / 5 Ref Frames
  7. Format settings, CABAC                   : Yes
  8. Format settings, ReFrames                : 5 frames
  9. Codec ID                                 : V_MPEG4/ISO/AVC
  10. Duration                                 : 1 h 53 min
  11. Bit rate                                 : 11.7 Mb/s
  12. Width                                    : 1 920 pixels
  13. Height                                   : 800 pixels
  14. Display aspect ratio                     : 2.40:1
  15. Frame rate mode                          : Constant
  16. Frame rate                               : 23.976 (24000/1001) FPS
  17. Color space                              : YUV
  18. Chroma subsampling                       : 4:2:0
  19. Bit depth                                : 8 bits
  20. Scan type                                : Progressive
  21. Bits/(Pixel*Frame)                       : 0.318
  22. Stream size                              : 9.32GB (68%)
  23. Title                                    : Enders.Game.2013.1080p.BluRay.x264.TrueHD.7.1.Atmos-SWTYBLZ
  24. Writing library                          : x264 core 148 r2748 97eaef2
  25. Encoding settings                        : cabac=1 / ref=5 / deblock=1:-1:-1 / analyse=0x3:0x133 / me=umh / subme=10 / psy=1 / psy_rd=1.00:0.15 / mixed_ref=1 / me_range=48 / chroma_me=1 / trellis=2 / 8x8dct=1 / cqm=0 / deadzone=21,11 / fast_pskip=1 / chroma_qp_offset=-3 / threads=25 / lookahead_threads=4 / sliced_threads=0 / nr=0 / decimate=0 / interlaced=0 / bluray_compat=0 / constrained_intra=0 / bframes=8 / b_pyramid=2 / b_adapt=2 / b_bias=0 / direct=3 / weightb=1 / open_gop=0 / weightp=2 / keyint=250 / keyint_min=23 / scenecut=40 / intra_refresh=0 / rc_lookahead=60 / rc=crf / mbtree=1 / crf=15.0 / qcomp=0.60 / qpmin=0 / qpmax=69 / qpstep=4 / ip_ratio=1.40 / aq=1:1.00
  26. Default                                  : Yes
  27. Forced                                   : No

  28. Audio #1
  29. ID                                       : 2
  30. Format                                   : TrueHD
  31. Format profile                           : TrueHD+Atmos / TrueHD
  32. Codec ID                                 : A_TRUEHD
  33. Duration                                 : 1 h 53 min
  34. Bit rate mode                            : Variable
  35. Bit rate                                 : 4 676 kb/s
  36. Maximum bit rate                         : 8 028 kb/s
  37. Channel(s)                               : Object Based / 8 channels
  38. Channel positions                        : Object Based / Front: L C R, Side: L R, Back: L R, LFE
  39. Sampling rate                            :  / 48.0 kHz
  40. Frame rate                               : 1 200.000 FPS (40 SPF)
  41. Compression mode                         : Lossless
  42. Stream size                              : 3.72GB (27%)
  43. Title                                    : Enders.Game.2013.1080p.BluRay.x264.TrueHD.7.1.Atmos-SWTYBLZ
  44. Language                                 : English
  45. Default                                  : Yes
  46. Forced                                   : No

  47. Audio #2
  48. ID                                       : 3
  49. Format                                   : AC-3
  50. Format/Info                              : Audio Coding 3
  51. Codec ID                                 : A_AC3
  52. Duration                                 : 1 h 53 min
  53. Bit rate mode                            : Constant
  54. Bit rate                                 : 640 kb/s
  55. Channel(s)                               : 6 channels
  56. Channel positions                        : Front: L C R, Side: L R, LFE
  57. Sampling rate                            : 48.0 kHz
  58. Frame rate                               : 31.250 FPS (1536 SPF)
  59. Bit depth                                : 16 bits
  60. Compression mode                         : Lossy
  61. Stream size                              : 521 MiB (4%)
  62. Title                                    : Enders.Game.2013.1080p.BluRay.x264.TrueHD.7.1.Atmos-SWTYBLZ
  63. Language                                 : English
  64. Service kind                             : Complete Main
  65. Default                                  : No
  66. Forced                                   : No

  67. Text #1
  68. ID                                       : 4
  69. Format                                   : UTF-8
  70. Codec ID                                 : S_TEXT/UTF8
  71. Codec ID/Info                            : UTF-8 Plain Text
  72. Duration                                 : 1 h 44 min
  73. Bit rate                                 : 55 b/s
  74. Count of elements                        : 1477
  75. Stream size                              : 42.4 KiB (0%)
  76. Title                                    : English-SRT
  77. Language                                 : English
  78. Default                                  : Yes
  79. Forced                                   : No

  80. Text #2
  81. ID                                       : 5
  82. Format                                   : PGS
  83. Muxing mode                              : zlib
  84. Codec ID                                 : S_HDMV/PGS
  85. Codec ID/Info                            : Picture based subtitle format used on BDs/HD-DVDs
  86. Duration                                 : 1 h 44 min
  87. Bit rate                                 : 34.9 kb/s
  88. Count of elements                        : 2948
  89. Stream size                              : 26.0 MiB (0%)
  90. Title                                    : English-PGS
  91. Language                                 : English
  92. Default                                  : No
  93. Forced                                   : No

  94. Text #3
  95. ID                                       : 6
  96. Format                                   : PGS
  97. Muxing mode                              : zlib
  98. Codec ID                                 : S_HDMV/PGS
  99. Codec ID/Info                            : Picture based subtitle format used on BDs/HD-DVDs
  100. Duration                                 : 1 h 44 min
  101. Bit rate                                 : 38.9 kb/s
  102. Count of elements                        : 3292
  103. Stream size                              : 29.1 MiB (0%)
  104. Title                                    : English-SDH-PGS
  105. Language                                 : English
  106. Default                                  : No
  107. Forced                                   : No

  108. Text #4
  109. ID                                       : 7
  110. Format                                   : PGS
  111. Muxing mode                              : zlib
  112. Codec ID                                 : S_HDMV/PGS
  113. Codec ID/Info                            : Picture based subtitle format used on BDs/HD-DVDs
  114. Duration                                 : 1 h 44 min
  115. Bit rate                                 : 34.9 kb/s
  116. Count of elements                        : 2738
  117. Stream size                              : 26.1 MiB (0%)
  118. Title                                    : Spanish-PGS
  119. Language                                 : Spanish
  120. Default                                  : No
  121. Forced                                   : No

  122. Menu
  123. 00:00:00.000                             : en:Chapter 1
  124. 00:06:11.579                             : en:Chapter 2
  125. 00:14:16.313                             : en:Chapter 3
  126. 00:19:07.146                             : en:Chapter 4
  127. 00:28:08.144                             : en:Chapter 5
  128. 00:33:23.668                             : en:Chapter 6
  129. 00:39:35.664                             : en:Chapter 7
  130. 00:45:44.408                             : en:Chapter 8
  131. 00:53:38.715                             : en:Chapter 9
  132. 01:02:16.607                             : en:Chapter 10
  133. 01:09:22.950                             : en:Chapter 11
  134. 01:15:17.888                             : en:Chapter 12
  135. 01:23:39.305                             : en:Chapter 13
  136. 01:30:55.825                             : en:Chapter 14
  137. 01:35:44.280                             : en:Chapter 15
  138. 01:41:13.859                             : en:Chapter 16



复制代码
复制代码
131807h2dmi0drj04zj34i.jpg 131808l1hhcsjho3g17otp.jpg 131809ptfi7ufzge7edf4o.jpg 131810oi7ctvihtkytqgkr.jpg 131811s5nz3355pwwpxv3p.jpg 131812rkm4l299k5f91282.jpg






回复

使用道具 举报

懒得打字嘛,点击右侧快捷回复 【右侧内容,后台自定义】
您需要登录后才可以回帖 登录 | 立即加入

本版积分规则

Archiver| |网站地图

Copyright © 2024 Comsenz Inc. Powered by 蓝光电影网

本站内容由用户自主分享和转载自互联网,转载目的在于传递更多信息,并不代表本网赞同其观点和对其真实性负责。

如有侵权、违反国家法律政策行为,请联系我们,我们会第一时间及时清除和处理!

举报反馈邮箱:4k1080.com@gmail.com

快速回复 返回顶部 返回列表