找回密码

查看: 3845|回复: 3

[剧情] 东京食尸鬼 真人版/东京喰种 真人版 Tokyo.Ghoul.2017.1080p.BluRay.x264-WiKi 8.91GB

[复制链接]
蓝光币
1992
发表于 2017-12-21 21:19:10 | 显示全部楼层 |阅读模式
203846hppxs5dn9dpkkn0p.jpg
◎译  名 东京食尸鬼 真人版/东京喰种 真人版
◎片  名 東京喰種トーキョーグール
◎年  代 2017
◎产  地 日本
◎类  别 剧情/奇异/可骇
◎语  言 日语
◎上映日期 2017-07-16(富川奇异电影节)/2017-07-29(日本)
◎IMDb评分  6.3/10 from 463 users
◎IMDb链接  http://www.imdb.com/title/tt5815944/
◎豆瓣评分 6.4/10 from 799 users
◎豆瓣链接 https://movie.douban.com/subject/26817016/
◎片  长 119分钟
◎导  演 萩原健太郎 Kentar? Hagiwara
◎主  演 洼田正孝 Masataka Kubota
      清水富美加 Fumika Shimizu
      铃木伸之 Nobuyuki Suzuki
      苍井优 Yu Aoi
      大泉洋 Y? ?izumi
      佐佐木希 Nozomi Sasaki
      村井国夫 Kunio Murai
      浜野谦太 Kenta Hamano
      柳俊太郎 Shuntaro Yanagi
      樱田日和 Hiyori Sakurada
      相田翔子 Sh?ko Aida

◎简  介

  在东京陌头,一切成谜的吃人怪人“喰种”正静静在人类天下扩大势力。普通大门生金木研(洼田正孝 饰)倾慕咖啡店女孩神代利世(苍井优 饰),约会后遭到喰种猎食而人命弥留,手术时被移植喰种的器官,酿成半人半喰种,对美味食品难以下咽,只要新鲜人类才能引发食欲。他失望的日子也就此起头…


  1. Video
  2. ID                                       : 1
  3. Format                                   : AVC
  4. Format/Info                              : Advanced Video Codec
  5. Format profile                           : [email]High@L4.1[/email]
  6. Format settings                          : CABAC / 5 Ref Frames
  7. Format settings, CABAC                   : Yes
  8. Format settings, ReFrames                : 5 frames
  9. Codec ID                                 : V_MPEG4/ISO/AVC
  10. Duration                                 : 1 h 59 min
  11. Bit rate                                 : 10 000 kb/s
  12. Width                                    : 1 920 pixels
  13. Height                                   : 804 pixels
  14. Display aspect ratio                     : 2.40:1
  15. Frame rate mode                          : Constant
  16. Frame rate                               : 23.976 (24000/1001) FPS
  17. Color space                              : YUV
  18. Chroma subsampling                       : 4:2:0
  19. Bit depth                                : 8 bits
  20. Scan type                                : Progressive
  21. Bits/(Pixel*Frame)                       : 0.270
  22. Stream size                              : 8.37GB (94%)
  23. Title                                    : x246_L4.1 @ 10,000 Kbps (pass2)
  24. Writing library                          : x264 core 129 r2245+704+36 8e61944 tMod+MixAQ [8-bit@4:2:0 X86_64]
  25. Encoding settings                        : cabac=1 / ref=5 / deblock=1:-3:-3 / analyse=0x3:0x133 / me=umh / subme=11 / psy=1 / fade_compensate=0.00 / psy_rd=1.05:0.10 / mixed_ref=1 / me_range=64 / chroma_me=1 / trellis=2 / 8x8dct=1 / cqm=0 / deadzone=21,11 / fast_pskip=0 / chroma_qp_offset=-3 / threads=12 / lookahead_threads=2 / sliced_threads=0 / nr=0 / decimate=1 / interlaced=0 / bluray_compat=0 / constrained_intra=0 / fgo=0 / bframes=8 / b_pyramid=2 / b_adapt=2 / b_bias=0 / direct=3 / weightb=1 / open_gop=0 / weightp=2 / keyint=250 / keyint_min=23 / scenecut=40 / intra_refresh=0 / rc=2pass / mbtree=0 / bitrate=10000 / ratetol=1.0 / qcomp=0.75 / qpmin=0 / qpmax=69 / qpstep=4 / cplxblur=20.0 / qblur=0.5 / ip_ratio=1.40 / pb_ratio=1.30 / aq=1 / aq-strength=0.75 / aq-sensitivity=10.00 / aq-ifactor=1.00 / aq-pfactor=1.00 / aq-bfactor=1.00 / aq2=0
  26. Language                                 : Japanese
  27. Default                                  : Yes
  28. Forced                                   : No

  29. Audio
  30. ID                                       : 2
  31. Format                                   : AC-3
  32. Format/Info                              : Audio Coding 3
  33. Codec ID                                 : A_AC3
  34. Duration                                 : 1 h 59 min
  35. Bit rate mode                            : Constant
  36. Bit rate                                 : 640 kb/s
  37. Channel(s)                               : 6 channels
  38. Channel positions                        : Front: L C R, Side: L R, LFE
  39. Sampling rate                            : 48.0 kHz
  40. Frame rate                               : 31.250 FPS (1536 SPF)
  41. Bit depth                                : 16 bits
  42. Compression mode                         : Lossy
  43. Stream size                              : 549 MiB (6%)
  44. Title                                    : Japanese DD 5.1 @ 640 Kbps
  45. Language                                 : Japanese
  46. Service kind                             : Complete Main
  47. Default                                  : Yes
  48. Forced                                   : No

  49. Text #1
  50. ID                                       : 3
  51. Format                                   : UTF-8
  52. Codec ID                                 : S_TEXT/UTF8
  53. Codec ID/Info                            : UTF-8 Plain Text
  54. Duration                                 : 1 h 59 min
  55. Bit rate                                 : 18 b/s
  56. Count of elements                        : 757
  57. Stream size                              : 16.2 KiB (0%)
  58. Title                                    : Simplified Chinese
  59. Language                                 : Chinese
  60. Default                                  : Yes
  61. Forced                                   : No

  62. Text #2
  63. ID                                       : 4
  64. Format                                   : UTF-8
  65. Codec ID                                 : S_TEXT/UTF8
  66. Codec ID/Info                            : UTF-8 Plain Text
  67. Duration                                 : 1 h 59 min
  68. Bit rate                                 : 18 b/s
  69. Count of elements                        : 757
  70. Stream size                              : 16.2 KiB (0%)
  71. Title                                    : Traditional Chinese
  72. Language                                 : Chinese
  73. Default                                  : No
  74. Forced                                   : No

  75. Menu
  76. 00:00:00.000                             : en:00:00:00.000
  77. 00:06:02.028                             : en:00:06:02.028
  78. 00:11:57.133                             : en:00:11:57.133
  79. 00:17:23.793                             : en:00:17:23.793
  80. 00:27:22.224                             : en:00:27:22.224
  81. 00:37:23.741                             : en:00:37:23.741
  82. 00:48:49.760                             : en:00:48:49.760
  83. 00:53:37.339                             : en:00:53:37.339
  84. 00:59:03.790                             : en:00:59:03.790
  85. 01:04:36.539                             : en:01:04:36.539
  86. 01:07:56.197                             : en:01:07:56.197
  87. 01:12:28.469                             : en:01:12:28.469
  88. 01:19:42.945                             : en:01:19:42.945
  89. 01:24:38.490                             : en:01:24:38.490
  90. 01:30:14.492                             : en:01:30:14.492
  91. 01:39:00.977                             : en:01:39:00.977
  92. 01:45:45.172                             : en:01:45:45.172
  93. 01:54:19.352                             : en:01:54:19.352



复制代码
复制代码
203847art494zc2kk2a7c4.jpg 203848on5er44i8zndqfnr.jpg 203849wdkffku1ftrzutik.jpg 203851jxn1gioio77gotog.jpg 203852k8vqq4nqnpot8xok.jpg 203853oqcgjlcjp33j28dj.jpg






相关帖子

回复

使用道具 举报

蓝光币
2
发表于 2018-1-10 02:08:20 | 显示全部楼层
万分感谢楼主分享
回复

使用道具 举报

蓝光币
2
发表于 2018-1-10 02:09:03 | 显示全部楼层
真心感谢楼主分享
回复

使用道具 举报

懒得打字嘛,点击右侧快捷回复 【右侧内容,后台自定义】
您需要登录后才可以回帖 登录 | 立即加入

本版积分规则

Archiver| |网站地图

Copyright © 2024 Comsenz Inc. Powered by 蓝光电影网

本站内容由用户自主分享和转载自互联网,转载目的在于传递更多信息,并不代表本网赞同其观点和对其真实性负责。

如有侵权、违反国家法律政策行为,请联系我们,我们会第一时间及时清除和处理!

举报反馈邮箱:4k1080.com@gmail.com

快速回复 返回顶部 返回列表