找回密码

查看: 3413|回复: 5

[动作] 侠盗联盟 The.Adventurers.2017.CHINESE.1080p.BluRay.REMUX.AVC.TrueHD.7.1-FGT 29.06GB

[复制链接]
蓝光币
1982
发表于 2017-12-21 22:29:06 | 显示全部楼层 |阅读模式
134225as5z9fiilqsaz2ka.jpg
◎译  名 侠盗同盟 / The Adventurers
◎片  名 侠盗同盟 俠盜聯盟
◎年  代 2017
◎国  家 中国大陆 / 香港 / 捷克
◎类  别 行动 / 冒险
◎语  言 汉语普通话
◎上映日期 2017-08-11(中国大陆)
◎IMDb评分6.3/10 from 299 users
◎IMDb链接http://www.imdb.com/title/tt5866930/
◎豆瓣评分 5.5/10 from 24830 users
◎豆瓣链接 https://movie.douban.com/subject/25858758/
◎片  长 108分钟
◎导  演 冯德伦
◎主  演 刘德华 Andy Lau
      舒淇 Qi Shu
      张静初 Jingchu Zhang
      杨祐宁 Yo Yang
      让·雷诺 Jean Reno
      曾志伟 Eric Tsang
      沙溢 Yi Sha
      游天翼 Tianyi You

◎简  介 

  江洋大盗张丹(刘德华 饰)在一次行动中遭受黑吃黑,失手被擒入狱。三年后,出狱的张丹会合老同伴小宝(杨祐宁 饰),与新入伙的叶红(舒淇 饰)联手,在追捕自己多年的法国警探皮埃尔(让?雷诺 饰)眼皮底下偷盗得手。
  小试身手以后,张丹找到宝贝的买家——与自己情同父子的犯罪构造头子金刚(曾志伟 饰),二人重逢以后,张丹接到新的使命。与此同时,为将张丹一伙人缉捕归案,皮埃尔压服对张丹因爱生恨的前女友Amber(张静初 饰)加入追捕行动。
  从戛纳到布拉格,跨越欧洲大陆的猫鼠游戏正剧烈上演。几次短兵相接后,张丹的行迹逐步被皮埃尔把握。而随着一行人接近终纵方针,张丹的实在计划也逐步浮出水面……



  1. Video
  2. ID             : 1
  3. Format           : AVC
  4. Format/Info          : Advanced Video Codec
  5. Format profile         : [email]High@L4.1[/email]
  6. Format settings, CABAC       : Yes
  7. Format settings, ReFrames      : 4 frames
  8. Codec ID           : V_MPEG4/ISO/AVC
  9. Duration           : 1 h 47 min
  10. Bit rate mode          : Constant
  11. Nominal bit rate         : 33.0 Mb/s
  12. Width            : 1 920 pixels
  13. Height           : 1 080 pixels
  14. Display aspect ratio       : 16:9
  15. Frame rate mode        : Constant
  16. Frame rate           : 24.000 FPS
  17. Standard           : NTSC
  18. Color space          : YUV
  19. Chroma subsampling       : 4:2:0
  20. Bit depth          : 8 bits
  21. Scan type          : Progressive
  22. Bits/(Pixel*Frame)       : 0.663
  23. Title            : The.Adventurers.2017.1080p.BluRay.REMUX.AVC.TrueHD.7.1-FGT
  24. Language           : English
  25. Default            : No
  26. Forced           : No
  27. Color range          : Limited
  28. Color primaries        : BT.709
  29. Transfer characteristics     : BT.709
  30. Matrix coefficients        : BT.709

  31. Audio #1
  32. ID             : 2
  33. Format           : TrueHD
  34. Codec ID           : A_TRUEHD
  35. Duration           : 1 h 47 min
  36. Bit rate mode          : Variable
  37. Maximum bit rate         : 6 936 kb/s
  38. Channel(s)           : 8 channels
  39. Channel positions        : Front: L C R, Side: L R, Back: L R, LFE
  40. Sampling rate          : 96.0 kHz
  41. Frame rate           : 2 400.000 FPS (40 spf)
  42. Compression mode         : Lossless
  43. Title            : The.Adventurers.2017.1080p.BluRay.REMUX.AVC.TrueHD.7.1-FGT
  44. Language           : Chinese
  45. Default            : Yes
  46. Forced           : No

  47. Audio #2
  48. ID             : 3
  49. Format           : AC-3
  50. Format/Info          : Audio Coding 3
  51. Format settings, Endianness    : Big
  52. Codec ID           : A_AC3
  53. Duration           : 1 h 47 min
  54. Bit rate mode          : Constant
  55. Bit rate           : 640 kb/s
  56. Channel(s)           : 6 channels
  57. Channel positions        : Front: L C R, Side: L R, LFE
  58. Sampling rate          : 48.0 kHz
  59. Frame rate           : 31.250 FPS (1536 spf)
  60. Bit depth          : 16 bits
  61. Compression mode         : Lossy
  62. Stream size          : 490 MiB (2%)
  63. Title            : The.Adventurers.2017.1080p.BluRay.REMUX.AVC.TrueHD.7.1-FGT
  64. Language           : Chinese
  65. Service kind         : Complete Main
  66. Default            : No
  67. Forced           : No

  68. Audio #3
  69. ID             : 4
  70. Format           : TrueHD
  71. Codec ID           : A_TRUEHD
  72. Duration           : 1 h 47 min
  73. Bit rate mode          : Variable
  74. Maximum bit rate         : 4 026 kb/s
  75. Channel(s)           : 6 channels
  76. Channel positions        : Front: L C R, Side: L R, LFE
  77. Sampling rate          : 96.0 kHz
  78. Frame rate           : 2 400.000 FPS (40 spf)
  79. Compression mode         : Lossless
  80. Title            : The.Adventurers.2017.1080p.BluRay.REMUX.AVC.TrueHD.7.1-FGT
  81. Language           : Chinese
  82. Default            : No
  83. Forced           : No

  84. Audio #4
  85. ID             : 5
  86. Format           : AC-3
  87. Format/Info          : Audio Coding 3
  88. Format settings, Endianness    : Big
  89. Codec ID           : A_AC3
  90. Duration           : 1 h 47 min
  91. Bit rate mode          : Constant
  92. Bit rate           : 640 kb/s
  93. Channel(s)           : 6 channels
  94. Channel positions        : Front: L C R, Side: L R, LFE
  95. Sampling rate          : 48.0 kHz
  96. Frame rate           : 31.250 FPS (1536 spf)
  97. Bit depth          : 16 bits
  98. Compression mode         : Lossy
  99. Stream size          : 490 MiB (2%)
  100. Title            : The.Adventurers.2017.1080p.BluRay.REMUX.AVC.TrueHD.7.1-FGT
  101. Language           : Chinese
  102. Service kind         : Complete Main
  103. Default            : No
  104. Forced           : No

  105. Text #1
  106. ID             : 6
  107. Format           : PGS
  108. Muxing mode          : zlib
  109. Codec ID           : S_HDMV/PGS
  110. Codec ID/Info          : Picture based subtitle format used on BDs/HD-DVDs
  111. Title            : English-PGS
  112. Language           : English
  113. Default            : Yes
  114. Forced           : No

  115. Text #2
  116. ID             : 7
  117. Format           : PGS
  118. Muxing mode          : zlib
  119. Codec ID           : S_HDMV/PGS
  120. Codec ID/Info          : Picture based subtitle format used on BDs/HD-DVDs
  121. Title            : Chinese-PGS
  122. Language           : Chinese
  123. Default            : No
  124. Forced           : No

  125. Text #3
  126. ID             : 8
  127. Format           : PGS
  128. Muxing mode          : zlib
  129. Codec ID           : S_HDMV/PGS
  130. Codec ID/Info          : Picture based subtitle format used on BDs/HD-DVDs
  131. Title            : Chinese-PGS
  132. Language           : Chinese
  133. Default            : No
  134. Forced           : No

  135. Menu
  136. 00:00:00.000         : en:Chapter 01
  137. 00:08:04.000         : en:Chapter 02
  138. 00:19:07.916         : en:Chapter 03
  139. 00:26:16.416         : en:Chapter 04
  140. 00:34:50.875         : en:Chapter 05
  141. 00:44:29.791         : en:Chapter 06
  142. 00:55:30.500         : en:Chapter 07
  143. 01:01:27.833         : en:Chapter 08
  144. 01:11:12.708         : en:Chapter 09
  145. 01:19:45.666         : en:Chapter 10
  146. 01:29:51.208         : en:Chapter 11
  147. 01:39:49.250         : en:Chapter 12



复制代码
复制代码
134225n0b0us8350suslv1.jpg 134225hpevqjuekkcp1jva.jpg 134225cwweixix6gbwb567.jpg 134225t77fzf050z47200t.jpg 134225kf99iif16l032m3t.jpg 134225j1otms1r301115yr.jpg




回复

使用道具 举报

蓝光币
314
发表于 2023-5-6 20:58:27 | 显示全部楼层
楼主发贴辛苦了,谢谢楼主分享!我觉得蓝光电影网是注册对了!
回复

使用道具 举报

懒得打字嘛,点击右侧快捷回复 【右侧内容,后台自定义】
您需要登录后才可以回帖 登录 | 立即加入

本版积分规则

Archiver| |网站地图

Copyright © 2024 Comsenz Inc. Powered by 蓝光电影网

本站内容由用户自主分享和转载自互联网,转载目的在于传递更多信息,并不代表本网赞同其观点和对其真实性负责。

如有侵权、违反国家法律政策行为,请联系我们,我们会第一时间及时清除和处理!

举报反馈邮箱:4k1080.com@gmail.com

快速回复 返回顶部 返回列表