找回密码

查看: 3390|回复: 3

[剧情] 私人会所 Members.Only.2017.CHINESE.1080p.BluRay.REMUX.AVC.TrueHD.7.1-FGT 19.69GB

[复制链接]
蓝光币
1992
发表于 2017-12-21 22:31:40 | 显示全部楼层 |阅读模式
134728je8qumyjeub0jmbu.jpg
◎译  名 私人会所 / Members Only
◎片  名 私人会所 私人會所
◎年  代 2017
◎国  家 香港
◎类  别 剧情
◎语  言 粤语
◎上映日期 2017-08-31(香港)
◎IMDb评分3.3/10 from 9 users
◎IMDb链接http://www.imdb.com/title/tt7341610/
◎豆瓣评分 4.2/10 from 277 users
◎豆瓣链接 https://movie.douban.com/subject/26996753/
◎片  长 93分钟
◎导  演 颜米羔
◎主  演 冯海锐 Yoyo Fung
      李任燊 Kyle Li
      汤加文 Carmen Tong
      麦子乐 Bryant Ji-Lok Mak
      陈洁玲 Christy Chan
      陈詠谦 Abrahim Chan
      陈美伊 Melrose Chan
      钟卓菲 Celine Chung
      李凯贤 Brian Lee

◎简  介 

  报告家境欠安大门生Milo(冯海锐饰)因好友巧盈(陈美伊饰)炒股失利,成果跟巧盈一路到仿如夜总会运作高级私人会所Balcony工作赢利,在Joey妈(陈洁玲饰)的率领下,与菲菲(汤加文饰)与Sabrina(锺卓菲饰)每晚陪著客人。証券分析员 Steve n(李任燊饰)在工作关系由富二代Lucas(麦子乐饰)带到Balcony,而且熟悉了农户伦爷(李凯贤饰)及阿杰(陈咏谦饰)。Stephen初次在Balcony便遇上首天工作的Milo,而且相互成长。考了掮客牌的巧盈则希望能让陈杰开户,而Lucas在不得志下却对Joey妈有感,而伦爷却对菲菲有其好感。不外在股场之下,却隐藏著暗涌,影响众人命运。



  1. Video
  2. ID             : 1
  3. Format           : AVC
  4. Format/Info          : Advanced Video Codec
  5. Format profile         : [email]High@L4.1[/email]
  6. Format settings, CABAC       : Yes
  7. Format settings, ReFrames      : 4 frames
  8. Codec ID           : V_MPEG4/ISO/AVC
  9. Duration           : 1 h 32 min
  10. Bit rate mode          : Variable
  11. Maximum bit rate         : 30.0 Mb/s
  12. Width            : 1 920 pixels
  13. Height           : 1 080 pixels
  14. Display aspect ratio       : 16:9
  15. Frame rate mode        : Constant
  16. Frame rate           : 24.000 FPS
  17. Standard           : NTSC
  18. Color space          : YUV
  19. Chroma subsampling       : 4:2:0
  20. Bit depth          : 8 bits
  21. Scan type          : Progressive
  22. Title            : Members.Only.2017.CHINESE.1080p.BluRay.REMUX.AVC.TrueHD.7.1-FGT
  23. Language           : English
  24. Default            : No
  25. Forced           : No
  26. Color range          : Limited
  27. Color primaries        : BT.709
  28. Transfer characteristics     : BT.709
  29. Matrix coefficients        : BT.709

  30. Audio #1
  31. ID             : 2
  32. Format           : TrueHD
  33. Codec ID           : A_TRUEHD
  34. Duration           : 1 h 32 min
  35. Bit rate mode          : Variable
  36. Maximum bit rate         : 5 376 kb/s
  37. Channel(s)           : 8 channels
  38. Channel positions        : Front: L C R, Side: L R, Back: L R, LFE
  39. Sampling rate          : 96.0 kHz
  40. Frame rate           : 2 400.000 FPS (40 spf)
  41. Compression mode         : Lossless
  42. Title            : Members.Only.2017.CHINESE.1080p.BluRay.REMUX.AVC.TrueHD.7.1-FGT
  43. Language           : Chinese
  44. Default            : Yes
  45. Forced           : No

  46. Audio #2
  47. ID             : 3
  48. Format           : AC-3
  49. Format/Info          : Audio Coding 3
  50. Format settings, Endianness    : Big
  51. Codec ID           : A_AC3
  52. Duration           : 1 h 32 min
  53. Bit rate mode          : Constant
  54. Bit rate           : 640 kb/s
  55. Channel(s)           : 6 channels
  56. Channel positions        : Front: L C R, Side: L R, LFE
  57. Sampling rate          : 48.0 kHz
  58. Frame rate           : 31.250 FPS (1536 spf)
  59. Bit depth          : 16 bits
  60. Compression mode         : Lossy
  61. Stream size          : 424 MiB (2%)
  62. Title            : Members.Only.2017.CHINESE.1080p.BluRay.REMUX.AVC.TrueHD.7.1-FGT
  63. Language           : Chinese
  64. Service kind         : Complete Main
  65. Default            : No
  66. Forced           : No

  67. Audio #3
  68. ID             : 4
  69. Format           : E-AC-3
  70. Format/Info          : Enhanced Audio Coding 3
  71. Format settings, Endianness    : Big
  72. Codec ID           : A_EAC3
  73. Duration           : 1 h 32 min
  74. Bit rate mode          : Constant
  75. Bit rate           : 500 b/s
  76. Channel(s)           : 6 channels
  77. Channel positions        : Front: L C R, Side: L R, LFE
  78. Sampling rate          : 48.0 kHz
  79. Frame rate           : 187.500 FPS (256 spf)
  80. Compression mode         : Lossy
  81. Stream size          : 339 KiB (0%)
  82. Title            : Members.Only.2017.CHINESE.1080p.BluRay.REMUX.AVC.TrueHD.7.1-FGT
  83. Language           : Chinese
  84. Service kind         : Complete Main
  85. Default            : No
  86. Forced           : No

  87. Audio #4
  88. ID             : 5
  89. Format           : AC-3
  90. Format/Info          : Audio Coding 3
  91. Format settings, Endianness    : Big
  92. Codec ID           : A_AC3
  93. Duration           : 1 h 32 min
  94. Bit rate mode          : Constant
  95. Bit rate           : 448 kb/s
  96. Channel(s)           : 6 channels
  97. Channel positions        : Front: L C R, Side: L R, LFE
  98. Sampling rate          : 48.0 kHz
  99. Frame rate           : 31.250 FPS (1536 spf)
  100. Bit depth          : 16 bits
  101. Compression mode         : Lossy
  102. Stream size          : 297 MiB (1%)
  103. Title            : Members.Only.2017.CHINESE.1080p.BluRay.REMUX.AVC.TrueHD.7.1-FGT
  104. Language           : Chinese
  105. Service kind         : Complete Main
  106. Default            : No
  107. Forced           : No

  108. Text #1
  109. ID             : 6
  110. Format           : PGS
  111. Muxing mode          : zlib
  112. Codec ID           : S_HDMV/PGS
  113. Codec ID/Info          : Picture based subtitle format used on BDs/HD-DVDs
  114. Title            : English-PGS
  115. Language           : English
  116. Default            : Yes
  117. Forced           : No

  118. Text #2
  119. ID             : 7
  120. Format           : PGS
  121. Muxing mode          : zlib
  122. Codec ID           : S_HDMV/PGS
  123. Codec ID/Info          : Picture based subtitle format used on BDs/HD-DVDs
  124. Title            : Chinese-PGS
  125. Language           : Chinese
  126. Default            : No
  127. Forced           : No

  128. Text #3
  129. ID             : 8
  130. Format           : PGS
  131. Muxing mode          : zlib
  132. Codec ID           : S_HDMV/PGS
  133. Codec ID/Info          : Picture based subtitle format used on BDs/HD-DVDs
  134. Title            : Chinese-PGS
  135. Language           : Chinese
  136. Default            : No
  137. Forced           : No

  138. Menu
  139. 00:00:00.000         : en:Chapter 01
  140. 00:03:22.000         : en:Chapter 02
  141. 00:07:15.916         : en:Chapter 03
  142. 00:11:05.666         : en:Chapter 04
  143. 00:17:12.375         : en:Chapter 05
  144. 00:21:02.333         : en:Chapter 06
  145. 00:29:41.416         : en:Chapter 07
  146. 00:32:31.666         : en:Chapter 08
  147. 00:39:42.916         : en:Chapter 09
  148. 00:43:22.583         : en:Chapter 10
  149. 00:50:05.750         : en:Chapter 11
  150. 00:53:51.291         : en:Chapter 12
  151. 00:56:48.000         : en:Chapter 13
  152. 01:02:47.208         : en:Chapter 14
  153. 01:06:12.583         : en:Chapter 15
  154. 01:13:00.416         : en:Chapter 16
  155. 01:19:28.000         : en:Chapter 17
  156. 01:26:40.000         : en:Chapter 18



复制代码
复制代码
134728qjr8p93nnr3epi8n.jpg 134728ngrv6gvbt4e0vxgt.jpg 134729tsk6ryc6yzs55wy5.jpg 134729vl576vps6exsz6xr.jpg 134729lwof17d11q430pfw.jpg 134729jgjjoa40ztaj08uj.jpg




回复

使用道具 举报

蓝光币
208
发表于 2022-3-25 19:29:03 | 显示全部楼层

楼主太厉害了!楼主,电影应该很好看我觉得蓝光电影网真是个好地方!
回复

使用道具 举报

懒得打字嘛,点击右侧快捷回复 【右侧内容,后台自定义】
您需要登录后才可以回帖 登录 | 立即加入

本版积分规则

Archiver| |网站地图

Copyright © 2024 Comsenz Inc. Powered by 蓝光电影网

本站内容由用户自主分享和转载自互联网,转载目的在于传递更多信息,并不代表本网赞同其观点和对其真实性负责。

如有侵权、违反国家法律政策行为,请联系我们,我们会第一时间及时清除和处理!

举报反馈邮箱:4k1080.com@gmail.com

快速回复 返回顶部 返回列表