找回密码

查看: 2746|回复: 0

[惊悚] 回魂 The.Return.2006.1080p.BluRay.REMUX.VC-1.DTS-HD.MA.5.1-FGT 19.89GB

[复制链接]
蓝光币
1974
发表于 2017-12-21 22:34:36 | 显示全部楼层 |阅读模式
135153wfrw7tl4ntlrrwat.jpg
◎译  名 回魂
◎片  名 回魂 The Return
◎年  代 2006
◎国  家 美国
◎类  别 剧情 / 悬疑 / 惊悚
◎语  言 英语
◎上映日期 2007-01-18
◎IMDb评分4.8/10 from 10,467 users
◎IMDb链接http://www.imdb.com/title/tt0433442/
◎豆瓣评分 4.9/10 from 431 users
◎豆瓣链接 https://movie.douban.com/subject/1422919/
◎片  长 85 分钟
◎导  演 Asif Kapadia
◎主  演 Sarah Michelle Gellar
      Peter O'Brien

◎简  介 

  精明精悍的乔安娜?米尔斯(Sarah Michelle Gellar 萨拉?米歇尔?盖拉 饰)是圣路易斯一家运输公司的销售司理,她的奇迹蒸蒸日上,前途光亮。但是比来她却守旧噩梦的困扰,在梦中,她总会目击一路残暴的凶杀案,这令她备受熬煎,疲惫不胜。
  某日,为探讨竟的乔安娜来到了一座陌生的小镇,在此地她结识了单身的泰瑞?斯塔(Peter O'Brien 饰)。自此一切出现起色,噩梦与虚幻逐步增加,梦中凶杀案的线索也逐步清楚起来。当她间隔真相和凶手越来越近的时辰,危险也悄悄逼近……



  1. Video
  2. ID             : 1
  3. Format           : VC-1
  4. Format profile         : Advanced@L3
  5. Codec ID           : V_MS/VFW/FOURCC / WVC1
  6. Codec ID/Hint          : Microsoft
  7. Duration           : 1h 25mn
  8. Width            : 1 920 pixels
  9. Height           : 1 080 pixels
  10. Display aspect ratio       : 16:9
  11. Frame rate mode        : Constant
  12. Frame rate           : 23.976 (24000/1001) fps
  13. Color space          : YUV
  14. Chroma subsampling       : 4:2:0
  15. Bit depth          : 8 bits
  16. Scan type          : Progressive
  17. Compression mode         : Lossy
  18. Title            : The.Return.2006.1080p.BluRay.REMUX.VC-1.DTS-HD.MA.5.1-FGT
  19. Language           : English
  20. Default            : No
  21. Forced           : No

  22. Audio #1
  23. ID             : 2
  24. Format           : DTS
  25. Format/Info          : Digital Theater Systems
  26. Format profile         : MA / Core
  27. Mode             : 16
  28. Format settings, Endianness    : Big
  29. Codec ID           : A_DTS
  30. Duration           : 1h 25mn
  31. Bit rate mode          : Variable / Constant
  32. Bit rate           : Unknown / 1 509 Kbps
  33. Channel(s)           : 6 channels
  34. Channel positions        : Front: L C R, Side: L R, LFE
  35. Sampling rate          : 48.0 KHz
  36. Frame rate           : 93.750 fps (512 spf)
  37. Bit depth          : 24 bits
  38. Compression mode         : Lossless / Lossy
  39. Title            : The.Return.2006.1080p.BluRay.REMUX.VC-1.DTS-HD.MA.5.1-FGT
  40. Language           : English
  41. Default            : Yes
  42. Forced           : No

  43. Audio #2
  44. ID             : 3
  45. Format           : DTS
  46. Format/Info          : Digital Theater Systems
  47. Mode             : 16
  48. Format settings, Endianness    : Big
  49. Codec ID           : A_DTS
  50. Duration           : 1h 25mn
  51. Bit rate mode          : Constant
  52. Bit rate           : 1 509 Kbps
  53. Channel(s)           : 6 channels
  54. Channel positions        : Front: L C R, Side: L R, LFE
  55. Sampling rate          : 48.0 KHz
  56. Frame rate           : 93.750 fps (512 spf)
  57. Bit depth          : 24 bits
  58. Compression mode         : Lossy
  59. Stream size          : 919 MiB (5%)
  60. Title            : The.Return.2006.1080p.BluRay.REMUX.VC-1.DTS-HD.MA.5.1-FGT
  61. Language           : English
  62. Default            : No
  63. Forced           : No

  64. Audio #3
  65. ID             : 4
  66. Format           : DTS
  67. Format/Info          : Digital Theater Systems
  68. Mode             : 16
  69. Format settings, Endianness    : Big
  70. Codec ID           : A_DTS
  71. Duration           : 1h 25mn
  72. Bit rate mode          : Constant
  73. Bit rate           : 768 Kbps
  74. Channel(s)           : 6 channels
  75. Channel positions        : Front: L C R, Side: L R, LFE
  76. Sampling rate          : 48.0 KHz
  77. Frame rate           : 93.750 fps (512 spf)
  78. Bit depth          : 24 bits
  79. Compression mode         : Lossy
  80. Stream size          : 468 MiB (2%)
  81. Title            : The.Return.2006.1080p.BluRay.REMUX.VC-1.DTS-HD.MA.5.1-FGT
  82. Language           : Spanish
  83. Default            : No
  84. Forced           : No

  85. Text #1
  86. ID             : 5
  87. Format           : PGS
  88. Muxing mode          : zlib
  89. Codec ID           : S_HDMV/PGS
  90. Codec ID/Info          : Picture based subtitle format used on BDs/HD-DVDs
  91. Title            : English-PGS
  92. Language           : English
  93. Default            : Yes
  94. Forced           : No

  95. Text #2
  96. ID             : 6
  97. Format           : PGS
  98. Muxing mode          : zlib
  99. Codec ID           : S_HDMV/PGS
  100. Codec ID/Info          : Picture based subtitle format used on BDs/HD-DVDs
  101. Title            : Spanish-PGS
  102. Language           : Spanish
  103. Default            : No
  104. Forced           : No

  105. Text #3
  106. ID             : 7
  107. Format           : PGS
  108. Muxing mode          : zlib
  109. Codec ID           : S_HDMV/PGS
  110. Codec ID/Info          : Picture based subtitle format used on BDs/HD-DVDs
  111. Title            : Dutch-PGS
  112. Language           : Dutch
  113. Default            : No
  114. Forced           : No

  115. Text #4
  116. ID             : 8
  117. Format           : PGS
  118. Muxing mode          : zlib
  119. Codec ID           : S_HDMV/PGS
  120. Codec ID/Info          : Picture based subtitle format used on BDs/HD-DVDs
  121. Title            : Spanish-FORCED-PGS
  122. Language           : Spanish
  123. Default            : No
  124. Forced           : No

  125. Menu
  126. 00:00:00.000         : en:Chapter 01
  127. 00:03:51.940         : en:Chapter 02
  128. 00:06:58.876         : en:Chapter 03
  129. 00:12:09.228         : en:Chapter 04
  130. 00:16:30.906         : en:Chapter 05
  131. 00:19:40.053         : en:Chapter 06
  132. 00:21:31.290         : en:Chapter 07
  133. 00:26:34.718         : en:Chapter 08
  134. 00:31:24.799         : en:Chapter 09
  135. 00:34:36.449         : en:Chapter 10
  136. 00:39:58.771         : en:Chapter 11
  137. 00:42:46.605         : en:Chapter 12
  138. 00:46:33.999         : en:Chapter 13
  139. 00:51:08.148         : en:Chapter 14
  140. 00:55:22.360         : en:Chapter 15
  141. 01:00:41.304         : en:Chapter 16
  142. 01:04:19.105         : en:Chapter 17
  143. 01:07:13.904         : en:Chapter 18
  144. 01:13:36.537         : en:Chapter 19
  145. 01:19:40.942         : en:Chapter 20



复制代码
复制代码
135153o2rkiqnltitw2tlt.jpg 135153chiiia03jmw3hyyi.jpg 135153btt171e1igcy7yst.jpg 135153y0ohzv2rkiis20x4.jpg 135153e7ectptz456319zs.jpg 135153kr0abrrk6rpru5rj.jpg




回复

使用道具 举报

懒得打字嘛,点击右侧快捷回复 【右侧内容,后台自定义】
您需要登录后才可以回帖 登录 | 立即加入

本版积分规则

Archiver| |网站地图

Copyright © 2024 Comsenz Inc. Powered by 蓝光电影网

本站内容由用户自主分享和转载自互联网,转载目的在于传递更多信息,并不代表本网赞同其观点和对其真实性负责。

如有侵权、违反国家法律政策行为,请联系我们,我们会第一时间及时清除和处理!

举报反馈邮箱:4k1080.com@gmail.com

快速回复 返回顶部 返回列表