找回密码

查看: 4585|回复: 8

[科幻] 星际特工:千星之城 Valerian.and.the.City.of.a.Thousand.Planets.2017.1080p.BluRay.REMUX.AVC.DTS-HD.MA.TrueHD.7.1.Atmos-FGT 32.44GB

[复制链接]
蓝光币
1974
发表于 2017-12-21 22:39:41 | 显示全部楼层 |阅读模式
135820dfp6c0cf03x7nprj.jpg
◎译  名 星际奸细:千星之城 / 瓦莱里安与一千颗行星的城市 / 星际奸细瓦雷诺:千星之城 / 瓦莱里安与千星之城 / Valérian / Valerian
◎片  名 星际奸细:千星之城 Valérian and the City of a Thousand Planets
◎年  代 2017
◎国  家 法国
◎类  别 行动 / 科幻 / 冒险
◎语  言 英语 / 法语
◎上映日期 2017-08-25(中国大陆) / 2017-07-20(德国) / 2017-07-26(法国)
◎IMDb评分6.6/10 from 56,681 users
◎IMDb链接http://www.imdb.com/title/tt2239822/
◎豆瓣评分 7.1/10 from 68655 users
◎豆瓣链接 https://movie.douban.com/subject/11502973/
◎片  长 137分钟
◎导  演 吕克·贝松
◎主  演 戴恩·德哈恩 Dane DeHaan
      卡拉·迪瓦伊 Cara Delevingne
      克里夫·欧文 Clive Owen
      蕾哈娜 Rihanna
      伊桑·霍克 Ethan Hawke
      赫比·汉考克 Herbie Hancock
      吴亦凡 Kris Wu
      萨姆·斯普卢尔Sam Spruell
      阿兰·夏巴 Alain Chabat
      鲁特格尔·哈尔 Rutger Hauer
      泽维尔·吉亚诺利 Xavier Giannoli
      约翰·古德曼 John Goodman
      山姆·道格拉斯 Sam Douglas

◎简  介 

  故事设定在28世纪,人类发现了若何停止时空观光。Valerian(戴恩·德哈恩 Dane DeHaan 饰)和Laureline(卡拉·迪瓦伊 Cara Delevingne 饰)是“时空办事”的奸细,负责庇护地球帝国的行星。他们像平常一样履行着星际使命,但在履行一次使命时,他们偶然发现了一个奥秘,而他们也被卷入其中,越陷越深……



  1. Video
  2. ID             : 1
  3. Format           : AVC
  4. Format/Info          : Advanced Video Codec
  5. Format profile         : [email]High@L4.1[/email]
  6. Format settings        : CABAC / 4 Ref Frames
  7. Format settings, CABAC       : Yes
  8. Format settings, ReFrames      : 4 frames
  9. Codec ID           : V_MPEG4/ISO/AVC
  10. Duration           : 2 h 17 min
  11. Bit rate mode          : Variable
  12. Maximum bit rate         : 37.0 Mb/s
  13. Width            : 1 920 pixels
  14. Height           : 1 080 pixels
  15. Display aspect ratio       : 16:9
  16. Frame rate mode        : Constant
  17. Frame rate           : 23.976 (24000/1001) FPS
  18. Color space          : YUV
  19. Chroma subsampling       : 4:2:0
  20. Bit depth          : 8 bits
  21. Scan type          : Progressive
  22. Title            : Valerian.and.the.City.of.a.Thousand.Planets.2017.1080p.BluRay.REMUX.AVC.DTS-HD.MA.TrueHD.7.1.Atmos-FGT
  23. Language           : English
  24. Default            : No
  25. Forced           : No

  26. Audio #1
  27. ID             : 2
  28. Format           : TrueHD
  29. Format profile         : TrueHD+Atmos / TrueHD
  30. Codec ID           : A_TRUEHD
  31. Bit rate mode          : Variable
  32. Maximum bit rate         : 5 958 kb/s
  33. Channel(s)           : Object Based / 8 channels
  34. Channel positions        : Object Based / Front: L C R, Side: L R, Back: L R, LFE
  35. Sampling rate          :/ 48.0 kHz
  36. Frame rate           : 1 200.000 FPS (40 SPF)
  37. Compression mode         : Lossless
  38. Title            : Valerian.and.the.City.of.a.Thousand.Planets.2017.1080p.BluRay.REMUX.AVC.DTS-HD.MA.TrueHD.7.1.Atmos-FGT
  39. Language           : English
  40. Default            : Yes
  41. Forced           : No

  42. Audio #2
  43. ID             : 3
  44. Format           : DTS
  45. Format/Info          : Digital Theater Systems
  46. Format profile         : MA / Core
  47. Codec ID           : A_DTS
  48. Duration           : 2 h 17 min
  49. Bit rate mode          : Variable / Constant
  50. Bit rate           : Unknown / 1 509 kb/s
  51. Channel(s)           : 8 channels / 6 channels
  52. Channel positions        : Front: L C R, Side: L R, Back: L R, LFE / Front: L C R, Side: L R, LFE
  53. Sampling rate          : 48.0 kHz
  54. Frame rate           : 93.750 FPS (512 SPF)
  55. Bit depth          : 24 bits
  56. Compression mode         : Lossless / Lossy
  57. Title            : Valerian.and.the.City.of.a.Thousand.Planets.2017.1080p.BluRay.REMUX.AVC.DTS-HD.MA.TrueHD.7.1.Atmos-FGT
  58. Language           : English
  59. Default            : No
  60. Forced           : No

  61. Audio #3
  62. ID             : 4
  63. Format           : AC-3
  64. Format/Info          : Audio Coding 3
  65. Codec ID           : A_AC3
  66. Duration           : 2 h 17 min
  67. Bit rate mode          : Constant
  68. Bit rate           : 640 kb/s
  69. Channel(s)           : 6 channels
  70. Channel positions        : Front: L C R, Side: L R, LFE
  71. Sampling rate          : 48.0 kHz
  72. Frame rate           : 31.250 FPS (1536 SPF)
  73. Bit depth          : 16 bits
  74. Compression mode         : Lossy
  75. Stream size          : 627 MiB (2%)
  76. Title            : Valerian.and.the.City.of.a.Thousand.Planets.2017.1080p.BluRay.REMUX.AVC.DTS-HD.MA.TrueHD.7.1.Atmos-FGT
  77. Language           : English
  78. Service kind         : Complete Main
  79. Default            : No
  80. Forced           : No

  81. Audio #4
  82. ID             : 5
  83. Format           : AC-3
  84. Format/Info          : Audio Coding 3
  85. Codec ID           : A_AC3
  86. Duration           : 2 h 17 min
  87. Bit rate mode          : Constant
  88. Bit rate           : 640 kb/s
  89. Channel(s)           : 6 channels
  90. Channel positions        : Front: L C R, Side: L R, LFE
  91. Sampling rate          : 48.0 kHz
  92. Frame rate           : 31.250 FPS (1536 SPF)
  93. Bit depth          : 16 bits
  94. Compression mode         : Lossy
  95. Stream size          : 627 MiB (2%)
  96. Title            : Valerian.and.the.City.of.a.Thousand.Planets.2017.1080p.BluRay.REMUX.AVC.DTS-HD.MA.TrueHD.7.1.Atmos-FGT
  97. Language           : Spanish
  98. Service kind         : Complete Main
  99. Default            : No
  100. Forced           : No

  101. Audio #5
  102. ID             : 6
  103. Format           : AC-3
  104. Format/Info          : Audio Coding 3
  105. Codec ID           : A_AC3
  106. Duration           : 2 h 17 min
  107. Bit rate mode          : Constant
  108. Bit rate           : 224 kb/s
  109. Channel(s)           : 2 channels
  110. Channel positions        : Front: L R
  111. Sampling rate          : 48.0 kHz
  112. Frame rate           : 31.250 FPS (1536 SPF)
  113. Bit depth          : 16 bits
  114. Compression mode         : Lossy
  115. Stream size          : 220 MiB (1%)
  116. Title            : Valerian.and.the.City.of.a.Thousand.Planets.2017.1080p.BluRay.REMUX.AVC.DTS-HD.MA.TrueHD.7.1.Atmos-FGT
  117. Language           : English
  118. Service kind         : Complete Main
  119. Default            : No
  120. Forced           : No

  121. Audio #6
  122. ID             : 7
  123. Format           : AC-3
  124. Format/Info          : Audio Coding 3
  125. Codec ID           : A_AC3
  126. Duration           : 2 h 17 min
  127. Bit rate mode          : Constant
  128. Bit rate           : 224 kb/s
  129. Channel(s)           : 2 channels
  130. Channel positions        : Front: L R
  131. Sampling rate          : 48.0 kHz
  132. Frame rate           : 31.250 FPS (1536 SPF)
  133. Bit depth          : 16 bits
  134. Compression mode         : Lossy
  135. Stream size          : 220 MiB (1%)
  136. Title            : Valerian.and.the.City.of.a.Thousand.Planets.2017.1080p.BluRay.REMUX.AVC.DTS-HD.MA.TrueHD.7.1.Atmos-FGT
  137. Language           : English
  138. Service kind         : Complete Main
  139. Default            : No
  140. Forced           : No

  141. Text #1
  142. ID             : 8
  143. Format           : PGS
  144. Muxing mode          : zlib
  145. Codec ID           : S_HDMV/PGS
  146. Codec ID/Info          : Picture based subtitle format used on BDs/HD-DVDs
  147. Title            : English-FORCED-PGS
  148. Language           : English
  149. Default            : Yes
  150. Forced           : Yes

  151. Text #2
  152. ID             : 9
  153. Format           : PGS
  154. Muxing mode          : zlib
  155. Codec ID           : S_HDMV/PGS
  156. Codec ID/Info          : Picture based subtitle format used on BDs/HD-DVDs
  157. Title            : English-PGS
  158. Language           : English
  159. Default            : No
  160. Forced           : No

  161. Text #3
  162. ID             : 10
  163. Format           : PGS
  164. Muxing mode          : zlib
  165. Codec ID           : S_HDMV/PGS
  166. Codec ID/Info          : Picture based subtitle format used on BDs/HD-DVDs
  167. Title            : Spanish-PGS
  168. Language           : Spanish
  169. Default            : No
  170. Forced           : No

  171. Text #4
  172. ID             : 11
  173. Format           : PGS
  174. Muxing mode          : zlib
  175. Codec ID           : S_HDMV/PGS
  176. Codec ID/Info          : Picture based subtitle format used on BDs/HD-DVDs
  177. Title            : Spanish-FORCED-PGS
  178. Language           : Spanish
  179. Default            : No
  180. Forced           : No

  181. Menu
  182. 00:00:00.000         : en:Chapter 01
  183. 00:12:35.713         : en:Chapter 02
  184. 00:17:29.590         : en:Chapter 03
  185. 00:23:35.789         : en:Chapter 04
  186. 00:32:45.838         : en:Chapter 05
  187. 00:41:19.143         : en:Chapter 06
  188. 00:47:15.666         : en:Chapter 07
  189. 00:56:12.410         : en:Chapter 08
  190. 01:04:25.695         : en:Chapter 09
  191. 01:11:27.908         : en:Chapter 10
  192. 01:20:25.070         : en:Chapter 11
  193. 01:28:13.705         : en:Chapter 12
  194. 01:35:53.914         : en:Chapter 13
  195. 01:41:35.047         : en:Chapter 14
  196. 01:53:37.852         : en:Chapter 15
  197. 02:02:22.585         : en:Chapter 16



复制代码
复制代码
135820unwxx57h4kxte5fk.jpg 135820esm1pbcebsbgrasi.jpg 135820ce6h0cs6z29jhwc9.jpg 135820rp98hp1cbwln2042.jpg 135820dalrxmrdl1ud5a5q.jpg 135820k1c3caqock6c13dq.jpg




回复

使用道具 举报

蓝光币
0
发表于 2023-5-31 15:52:40 | 显示全部楼层
楼主发贴辛苦了,谢谢楼主分享!我觉得蓝光电影网是注册对了!
回复

使用道具 举报

懒得打字嘛,点击右侧快捷回复 【右侧内容,后台自定义】
您需要登录后才可以回帖 登录 | 立即加入

本版积分规则

Archiver| |网站地图

Copyright © 2024 Comsenz Inc. Powered by 蓝光电影网

本站内容由用户自主分享和转载自互联网,转载目的在于传递更多信息,并不代表本网赞同其观点和对其真实性负责。

如有侵权、违反国家法律政策行为,请联系我们,我们会第一时间及时清除和处理!

举报反馈邮箱:4k1080.com@gmail.com

快速回复 返回顶部 返回列表