找回密码

查看: 3747|回复: 1

[剧情] 悟空传 Wu.Kong.2017.CHINESE.1080p.BluRay.REMUX.AVC.TrueHD.7.1-FGT 33.76GB

[复制链接]
蓝光币
1982
发表于 2017-12-21 22:40:00 | 显示全部楼层 |阅读模式
135850hhrqraf9ec9abkmj.jpg
◎译  名 悟空传 / Wukong
◎片  名 悟空传
◎年  代 2017
◎国  家 中国大陆
◎类  别 剧情 / 行动 / 奇异
◎语  言 汉语普通话
◎上映日期 2017-07-13(中国大陆)
◎IMDb评分5.6/10 from 429 users
◎IMDb链接http://www.imdb.com/title/tt6513406/
◎豆瓣评分 5.1/10 from 119486 users
◎豆瓣链接 https://movie.douban.com/subject/26035290/
◎片  长 123分钟
◎导  演 郭子健
◎主  演 彭于晏 Eddie Peng
      倪妮 Ni Ni
      余文乐 Shawn Yue
      俞飞鸿 Faye Yu
      欧豪 Hao Ou
      郑爽 Shuang Zheng
      乔杉 Shan Qiao
      杨迪 Di Yang
      巴音 Bayaneruul
      王德顺 Deshun Wang

◎简  介 

  这不是西游记的任何章节,这是悟空的故事,彼时孙悟空(彭于晏 饰)还不是震动六合的齐天大圣,他只是只桀傲不驯的山公。天庭毁掉他的花果山以掌控众生命运,他便决心跟天庭匹敌,毁掉一切戒律。在天庭,孙悟空碰到不能爱的阿紫(倪妮 饰),平生的宿敌杨戬(余文乐 饰),和忖量昔日爱人阿月(郑爽 饰)的天蓬(欧豪 饰),他们的身份必定永生相杀,但实在不甘命运左右的又何止孙悟空一人?却没想到抵挡却带来更大的浩劫。他们所做的一切,究竟是不知天高地厚的热血浮滑,还是无法宿命难改的压制失望?难道命运真的早已必定?悟空不服,他再次挥舞金箍棒,要让这诸佛都云消雾散!

◎获奖情况 

  第54届台北金马影展 (2017)
  金马奖 最好行动设想(提名) 谷轩昭
  金马奖 最好视觉结果(提名) 徐建 /黄智亨

  第3届豆瓣电影年度榜单 (2016)
  最值得期待的华语电影(提名)



  1. Video
  2. ID             : 1
  3. Format           : AVC
  4. Format/Info          : Advanced Video Codec
  5. Format profile         : [email]High@L4.1[/email]
  6. Format settings        : CABAC / 4 Ref Frames
  7. Format settings, CABAC       : Yes
  8. Format settings, ReFrames      : 4 frames
  9. Codec ID           : V_MPEG4/ISO/AVC
  10. Duration           : 2 h 3 min
  11. Bit rate mode          : Variable
  12. Maximum bit rate         : 31.0 Mb/s
  13. Width            : 1 920 pixels
  14. Height           : 1 080 pixels
  15. Display aspect ratio       : 16:9
  16. Frame rate mode        : Constant
  17. Frame rate           : 24.000 FPS
  18. Color space          : YUV
  19. Chroma subsampling       : 4:2:0
  20. Bit depth          : 8 bits
  21. Scan type          : Progressive
  22. Title            : Wu.Kong.2017.CHINESE.1080p.BluRay.REMUX.AVC.TrueHD.7.1-FGT
  23. Language           : English
  24. Default            : No
  25. Forced           : No

  26. Audio #1
  27. ID             : 2
  28. Format           : TrueHD
  29. Codec ID           : A_TRUEHD
  30. Duration           : 2 h 3 min
  31. Bit rate mode          : Variable
  32. Maximum bit rate         : 7 302 kb/s
  33. Channel(s)           : 8 channels
  34. Channel positions        : Front: L C R, Side: L R, Back: L R, LFE
  35. Sampling rate          : 96.0 kHz
  36. Frame rate           : 2 400.000 FPS (40 SPF)
  37. Compression mode         : Lossless
  38. Delay relative to video      : 2 s 0 ms
  39. Title            : Wu.Kong.2017.CHINESE.1080p.BluRay.REMUX.AVC.TrueHD.7.1-FGT
  40. Language           : Chinese
  41. Default            : Yes
  42. Forced           : No

  43. Audio #2
  44. ID             : 3
  45. Format           : AC-3
  46. Format/Info          : Audio Coding 3
  47. Codec ID           : A_AC3
  48. Duration           : 2 h 3 min
  49. Bit rate mode          : Constant
  50. Bit rate           : 640 kb/s
  51. Channel(s)           : 6 channels
  52. Channel positions        : Front: L C R, Side: L R, LFE
  53. Sampling rate          : 48.0 kHz
  54. Frame rate           : 31.250 FPS (1536 SPF)
  55. Bit depth          : 16 bits
  56. Compression mode         : Lossy
  57. Delay relative to video      : 2 s 0 ms
  58. Stream size          : 564 MiB (2%)
  59. Title            : Wu.Kong.2017.CHINESE.1080p.BluRay.REMUX.AVC.TrueHD.7.1-FGT
  60. Language           : Chinese
  61. Service kind         : Complete Main
  62. Default            : No
  63. Forced           : No

  64. Audio #3
  65. ID             : 4
  66. Format           : TrueHD
  67. Codec ID           : A_TRUEHD
  68. Duration           : 2 h 3 min
  69. Bit rate mode          : Variable
  70. Maximum bit rate         : 7 320 kb/s
  71. Channel(s)           : 8 channels
  72. Channel positions        : Front: L C R, Side: L R, Back: L R, LFE
  73. Sampling rate          : 96.0 kHz
  74. Frame rate           : 2 400.000 FPS (40 SPF)
  75. Compression mode         : Lossless
  76. Delay relative to video      : 2 s 0 ms
  77. Title            : Wu.Kong.2017.CHINESE.1080p.BluRay.REMUX.AVC.TrueHD.7.1-FGT
  78. Language           : Chinese
  79. Default            : No
  80. Forced           : No

  81. Audio #4
  82. ID             : 5
  83. Format           : AC-3
  84. Format/Info          : Audio Coding 3
  85. Codec ID           : A_AC3
  86. Duration           : 2 h 3 min
  87. Bit rate mode          : Constant
  88. Bit rate           : 640 kb/s
  89. Channel(s)           : 6 channels
  90. Channel positions        : Front: L C R, Side: L R, LFE
  91. Sampling rate          : 48.0 kHz
  92. Frame rate           : 31.250 FPS (1536 SPF)
  93. Bit depth          : 16 bits
  94. Compression mode         : Lossy
  95. Delay relative to video      : 2 s 0 ms
  96. Stream size          : 564 MiB (2%)
  97. Title            : Wu.Kong.2017.CHINESE.1080p.BluRay.REMUX.AVC.TrueHD.7.1-FGT
  98. Language           : Chinese
  99. Service kind         : Complete Main
  100. Default            : No
  101. Forced           : No

  102. Text #1
  103. ID             : 6
  104. Format           : PGS
  105. Muxing mode          : zlib
  106. Codec ID           : S_HDMV/PGS
  107. Codec ID/Info          : Picture based subtitle format used on BDs/HD-DVDs
  108. Title            : English-PGS
  109. Language           : English
  110. Default            : Yes
  111. Forced           : No

  112. Text #2
  113. ID             : 7
  114. Format           : PGS
  115. Muxing mode          : zlib
  116. Codec ID           : S_HDMV/PGS
  117. Codec ID/Info          : Picture based subtitle format used on BDs/HD-DVDs
  118. Title            : Chinese-PGS
  119. Language           : Chinese
  120. Default            : No
  121. Forced           : No

  122. Text #3
  123. ID             : 8
  124. Format           : PGS
  125. Muxing mode          : zlib
  126. Codec ID           : S_HDMV/PGS
  127. Codec ID/Info          : Picture based subtitle format used on BDs/HD-DVDs
  128. Title            : Chinese-PGS
  129. Language           : Chinese
  130. Default            : No
  131. Forced           : No

  132. Menu
  133. 00:00:00.000         : en:Chapter 01
  134. 00:05:14.916         : en:Chapter 02
  135. 00:10:49.083         : en:Chapter 03
  136. 00:17:35.333         : en:Chapter 04
  137. 00:23:01.208         : en:Chapter 05
  138. 00:28:16.000         : en:Chapter 06
  139. 00:32:11.000         : en:Chapter 07
  140. 00:40:29.541         : en:Chapter 08
  141. 00:45:03.375         : en:Chapter 09
  142. 00:54:59.458         : en:Chapter 10
  143. 00:59:58.125         : en:Chapter 11
  144. 01:06:46.583         : en:Chapter 12
  145. 01:10:37.791         : en:Chapter 13
  146. 01:16:19.458         : en:Chapter 14
  147. 01:23:50.375         : en:Chapter 15
  148. 01:28:39.125         : en:Chapter 16
  149. 01:33:35.541         : en:Chapter 17
  150. 01:38:29.041         : en:Chapter 18
  151. 01:46:52.291         : en:Chapter 19
  152. 01:55:52.958         : en:Chapter 20



复制代码
复制代码
135850tzyoeyqbqeb3ibnb.jpg 135850sdn3zaf855r88mtx.jpg 135850s9uisrmuuupsr8me.jpg 135850etjojr4itj3kloio.jpg 135850b9fqn6tq1qm46mh7.jpg 135850rdgs99uvjcs2d3su.jpg




回复

使用道具 举报

蓝光币
15
发表于 2018-3-23 20:10:46 | 显示全部楼层
感谢分享。噜啦啦
回复

使用道具 举报

懒得打字嘛,点击右侧快捷回复 【右侧内容,后台自定义】
您需要登录后才可以回帖 登录 | 立即加入

本版积分规则

Archiver| |网站地图

Copyright © 2024 Comsenz Inc. Powered by 蓝光电影网

本站内容由用户自主分享和转载自互联网,转载目的在于传递更多信息,并不代表本网赞同其观点和对其真实性负责。

如有侵权、违反国家法律政策行为,请联系我们,我们会第一时间及时清除和处理!

举报反馈邮箱:4k1080.com@gmail.com

快速回复 返回顶部 返回列表